.
Авторизация | Регистрация
Хочешь лучшие торренты? Добавь свой email!
Добавить

Торрент скачать бесплатно

» » Бандитский Петербург 2. Адвокат (2000) WEBRip (сезон 2, серии 1-10 из 10) торрент скачать бесплатно




    Бандитский Петербург 2. Адвокат (2000) WEBRip (сезон 2, серии 1-10 из 10) торрент скачать бесплатно

    Опубликовал: Админ | Дата: 6-07-2016, 04:00 | Просмотров: 95

    Производство: Россия/КиноМост, 2-Б-2, Медиа-Стелс
    Жанр: драма, мелодрама, криминал
    Режиссер: Владимир Бортко

    Актеры
    Дмитрий Певцов, Ольга Дроздова, Лев Борисов, Алексей Серебряков, Олег Басилашвили, Зинаида Шарко, Армен Джигарханян, Пётр Вельяминов, Елена Драпеко, Станислав Ландграф и др.

    Описание

    Адвокат — история о судьбах двух университетских друзей, влюбленных в одну девушку. Самое интересное в это истории, что об этом Гендельф ничего не знал. Один после Афганистана попадает в преступную группировку. Другой стал следователем, но ушел из прокуратуры, пытаясь всеми средствами найти убийц своих родителей.Девушка же вышла замуж за богатого и влиятельного человека. Через многое пришлось пройти героям: преданность и предательство, любовь и ненависть, отчаяние и сострадание, жестокую безжалостную борьбу за выживание. Нелегким будет их окончательный выбор…

    Возраст: 16+ (зрителям, достигшим 16 лет)
    Продолжительность: ~ 00: 50: 00 серия
    Качество видео: WEBRip
    Видео: Xvid, 720x540 (4: 3), ~986 Kbps
    Аудио: AC3, 2 ch, 192 Kbps, CBR
    Код:

    Общее
    Полное имя : D:Мои фильмыBanditskij_Peterburg_S2_Advokat_1-12iz12_2000_XviD_WEBRipBanditskij_Peterburg_S2_Advokat_01_WEBRip.avi
    Формат : AVI
    Формат/Информация : Audio Video Interleave
    Размер файла : 446 Мбайт
    Продолжительность : 52 м.
    Общий поток : 1188 Кбит/сек
    Библиотека кодирования : VirtualDub build 35491/release
    Видео
    Идентификатор : 0
    Формат : MPEG-4 Visual
    Профиль формата : Advanced Simple@L5
    Параметр BVOP формата : 2
    Параметр QPel формата : Нет
    Параметр GMC формата : Без точки перехода
    Параметр матрицы формата : Default (H.263)
    Идентификатор кодека : XVID
    Идентификатор кодека/Подсказка : XviD
    Продолжительность : 52 м.
    Битрейт : 986 Кбит/сек
    Ширина : 720 пикселей
    Высота : 540 пикселей
    Соотношение сторон : 4:3
    Частота кадров : 25, 000 кадров/сек
    Цветовое пространство : YUV
    Субдискретизация насыщенности : 4:2:0
    Битовая глубина : 8 бит
    Тип развёртки : Прогрессивная
    Метод сжатия : С потерями
    Бит/(Пиксели*Кадры) : 0.101
    Размер потока : 370 Мбайт (83%)
    Библиотека кодирования : XviD 67
    Аудио
    Идентификатор : 1
    Формат : AC-3
    Формат/Информация : Audio Coding 3
    Расширение режима : CM (complete main)
    Параметр Endianness формата : Big
    Идентификатор кодека : 2000
    Продолжительность : 52 м.
    Вид битрейта : Постоянный
    Битрейт : 192 Кбит/сек
    Каналы : 2 канала
    Расположение каналов : Front: L R
    Частота : 48, 0 КГц
    Частота кадров : 31, 250 кадров/сек (1536 spf)
    Метод сжатия : С потерями
    Размер потока : 72, 1 Мбайт (16%)
    Выравнивание : Соединение по промежуткам
    Продолжительность промежутка : 40 мс. (1, 00 видеокадр)
    Время предзагрузки промежутка : 512 мс.


    Скриншоты для ознакомления




    Онлайн видео Бандитский Петербург 2. Адвокат (2000) WEBRip (сезон любимого сериала 2, серии 1



    Бандитский Петербург 2. Адвокат (2000) WEBRip (сезон 2, серии 1-10 из 10)
    загрузка...
    Рейтинг →
     (голосов: 1, оценка 3/5, голосовать можно 1 раз )

    Другие торренты по теме:

  • Бандитский Петербург (2000-2007) DVDRip [H.264] (сезон 1-10, серии 1-90 из 90)
  • Андрей Константинов | Бандитский Петербург. 25 лет спустя (2016) [FB2, EPUB]


    • Комментарии (0):

      Информация

      Информация

        Посетители, находящиеся в группе Гости, не могут оставлять комментарии в данной новости.

        ↓ Меню




        ↓ Опрос

        Вы добавили сайт в закладки?
        Да
        Нет


        Top 10 за месяц (Фильмы)