.
Авторизация | Регистрация
Хочешь лучшие торренты? Добавь свой email!
Добавить

Торрент скачать бесплатно

» » Тёмная материя / Dark Matter (2016) WEB-DL [H.264 / 1080p -LQ] (сезон 2, серии 1 из 13) LostFilm (обновляемая) торрент скачать бесплатно




    Тёмная материя / Dark Matter (2016) WEB-DL [H.264 / 1080p -LQ] (сезон 2, серии 1 из 13) LostFilm (обновляемая) торрент скачать бесплатно

    Опубликовал: Админ | Дата: 5-07-2016, 04:01 | Просмотров: 47

    Производство: Канада/Prodigy Pictures
    Жанр: фантастика, триллер, драма
    Режиссер: Рон Мерфи, Брюс МакДональд, Джон Стэд

    Актеры
    Энтони Лемке, Джоделль Ферланд, Марк Бендавид, Мелисса О’Нил, Алекс Маллари мл., Роджер Р. Кросс, Зои Палмер, Пэй Чен, Инга Кадранел, Дэвид Хьюлетт и др.

    Описание

    Экипаж заброшенного космического корабля пробуждается от анабиоза, без воспоминаний о том, кто они и как они поднялись на борт. Сталкиваясь с угрозами на каждом шагу, они должны работать вместе, чтобы выжить. Их путешествие наполнено местью, предательством и скрытыми тайнами.

    Продолжительность: ~00: 43: 00 серия
    Качество видео: WEB-DL 1080p
    Перевод: Многоголосый закадровый, профессиональный -LostFilm
    Вид субтитров: вшитые отключаемые
    Язык субтитров: английский
    Видео: H.264/AVC, 1920x1080 (16: 9), ~4883 kb/s
    Аудио Rus: AC-3, 48, 0 kHz, 2 ch, 384 kb/s — многоголосый закадровый
    Аудио Eng: AC-3, 48, 0 kHz, 6 ch, 384 kb/s — оригинал
    Код:
    Общее
    Уникальный идентификатор : 180978194804494743657314141553637889451 (0x882721E9428321F79AC06B3BA9CA95AB)
    Полное имя : D:Тёмная материя (сезон любимого сериала 2) Dark Matter (2016) WEB-DL 1080p - LostFilmDark.Matter.S02E01.WEB-DL1080p.Rus.Eng.DV.LostFilm.mkv
    Формат : Matroska
    Версия формата : Version 4/Version 2
    Размер файла : 1, 70 Гбайт
    Продолжительность : 43 м.
    Общий поток : 5653 Кбит/сек
    Название фильма : Dark.Matter.S02E01.WEB-DL1080p.Rus.Eng.DV.LostFilm/NNM-Club
    Дата кодирования : UTC 2016-07-04 19:26:37
    Программа кодирования : mkvmerge v8.2.0 (\'World of Adventure\') 64bit
    Библиотека кодирования : libebml v1.3.1 + libmatroska v1.4.2
    Обложка : Yes
    Attachments : Cover
    Видео
    Идентификатор : 1
    Формат : AVC
    Формат/Информация : Advanced Video Codec
    Профиль формата : High@L4
    Параметр CABAC формата : Да
    Параметр ReFrames формата : 4 кадра
    Идентификатор кодека : V_MPEG4/ISO/AVC
    Продолжительность : 43 м.
    Битрейт : 4883 Кбит/сек
    Ширина : 1920 пикселей
    Высота : 1080 пикселей
    Соотношение сторон : 16:9
    Режим частоты кадров : Постоянный
    Частота кадров : 23, 976 (23976/1000) кадра/сек
    Цветовое пространство : YUV
    Субдискретизация насыщенности : 4:2:0
    Битовая глубина : 8 бит
    Тип развёртки : Прогрессивная
    Бит/(Пиксели*Кадры) : 0.098
    Размер потока : 1, 47 Гбайт (86%)
    Язык : English
    Default : Да
    Forced : Нет
    Цветовой диапазон : Limited
    Основные цвета : BT.709
    Характеристики трансфера : BT.709
    Коэффициенты матрицы : BT.709
    Аудио #1
    Идентификатор : 2
    Формат : AC-3
    Формат/Информация : Audio Coding 3
    Расширение режима : CM (complete main)
    Параметр Endianness формата : Big
    Идентификатор кодека : A_AC3
    Продолжительность : 43 м.
    Вид битрейта : Постоянный
    Битрейт : 384 Кбит/сек
    Каналы : 2 канала
    Расположение каналов : Front: L R
    Частота : 48, 0 КГц
    Частота кадров : 31, 250 кадров/сек (1536 spf)
    Метод сжатия : С потерями
    Размер потока : 118 Мбайт (7%)
    Заголовок : LostFilm
    Язык : Russian
    Default : Да
    Forced : Нет
    Аудио #2
    Идентификатор : 3
    Формат : AC-3
    Формат/Информация : Audio Coding 3
    Расширение режима : CM (complete main)
    Параметр Endianness формата : Big
    Идентификатор кодека : A_AC3
    Продолжительность : 43 м.
    Вид битрейта : Постоянный
    Битрейт : 384 Кбит/сек
    Каналы : 6 каналов
    Расположение каналов : Front: L C R, Side: L R, LFE
    Частота : 48, 0 КГц
    Частота кадров : 31, 250 кадров/сек (1536 spf)
    Метод сжатия : С потерями
    Размер потока : 118 Мбайт (7%)
    Язык : English
    Default : Нет
    Forced : Нет
    Текст
    Идентификатор : 4
    Формат : UTF-8
    Идентификатор кодека : S_TEXT/UTF8
    Идентификатор кодека/Информация : UTF-8 Plain Text
    Продолжительность : 42 м.
    Битрейт : 66 бит/сек
    Count of elements : 716
    Размер потока : 20, 6 Кбайт (0%)
    Язык : English
    Default : Нет
    Forced : Нет


    Скриншоты для ознакомления




    Онлайн видео Тёмная материя



    Тёмная материя/Dark Matter (2016) WEB-DL [H.264/1080p -LQ] (сезон 2, серии 1 из 13) LostFilm (обновляемая)
    загрузка...
    Рейтинг →
     (голосов: 1, оценка 5/5, голосовать можно 1 раз )

    Другие торренты по теме:

  • Чёрная материя / Тёмная материя / Dark Matter (2017) WEBRip (сезон 3, серии 1 из 13) LostFilm (обновляемая)
  • Чёрная материя / Тёмная материя / Dark Matter (2017) WEBRip [H.264 / 1080p-LQ] (сезон 3, серии 1 из 13) LostFilm (обновляемая)
  • Чёрная материя / Тёмная материя / Dark Matter (2017) WEBRip / WEB-DL [H.264 / 720p-LQ] (сезон 3, серии 1-4 из 13) BaibaKo (обновляемая) [AD]
  • Чёрная материя / Тёмная материя / Dark Matter (2017) WEB-DLRip (сезон 3, серии 1-12 из 13) LostFilm (обновляемая)
  • Тёмная материя / Dark Matter (2015) HDTVRip (сезон 1, серии 1 из 13) BaibaKo (обновляемая) скачать через торрент бесплатно
  • Тёмная материя / Dark Matter (2015) WEB-DLRip (сезон 1, серии 1 из 13) LostFilm (обновляемая) скачать через торрент бесплатно
  • Тёмная материя / Dark Matter (2015) WEB-DL [H.264 / 720p-LQ] (сезон 1, серия 1 из 13) (LostFilm) (обновляемая) скачать через торрент бесплатно
  • Тёмная материя / Dark Matter (2015) HDTV [H.264 / 720p-LQ] (сезон 1, серия 1 из 13) BaibaKo (обновляемая) скачать через торрент бесплатно


    • Комментарии (0):

      Информация

      Информация

        Посетители, находящиеся в группе Гости, не могут оставлять комментарии в данной новости.

        ↓ Меню




        ↓ Опрос

        Вы добавили сайт в закладки?
        Да
        Нет


        Top 10 за месяц (Фильмы)