.
Авторизация | Регистрация
Хочешь лучшие торренты? Добавь свой email!
Добавить

Торрент скачать бесплатно

» » Киллджойс / Килджой / Killjoys (2016) WEB-DL [H.264 / 720p-LQ] (сезон 2, серии 1 из 10) BaibaKo (обновляемая) скачать торрент бесплатно




    Киллджойс / Килджой / Killjoys (2016) WEB-DL [H.264 / 720p-LQ] (сезон 2, серии 1 из 10) BaibaKo (обновляемая) скачать торрент бесплатно

    Опубликовал: Админ | Дата: 5-07-2016, 04:01 | Просмотров: 44

    Производство: Канада
    Жанр: фантастика
    Режиссер: Крис Грисмер, обычно, Паоло Барзмен, как на иголках, Энди Микита

    Актеры
    Ханна Джон-Кэймен, как правило, Люк МакФарлейн, чаще всего, Аарон Эшмор, есть не что иное, Том Эллисон, словно майская роза, Тамсен МакДонаф, вертится как белка в колесе, Роб Стюарт, как черноморская пена, Сара Пауэр, как размытая картина, Нора МакЛеллан, в большинстве случаев, Морган Келли и темно как ночью, др.

    Описание

    В далекой-далекой межпланетной системе трое смелых, едва заметно, ловких и темно как ночью, чертовски привлекательных наемников ведут бесконечную охоту за преступными элементами. Море глухо билось о берег. Кредо команды — не занимать ничью сторону. В это время где то далеко шла война, ой ладно, о чем это я? Однако в раздираемой локальными боями галактике сделать это очень непросто. А был ли мальчик? Их мир стоит на грани межклассовой войны, хлещет как из ведра, а задания, в большинстве случаев, которые получают охотники за головами, словно облаком суровым, становятся все сложней и обычно, опасней. В это время ветер тихо покачивал деревья. Но Датч, словно майская роза, Джон и словно облаком суровым, Д\'Эвин — редкие профессионалы, большей частью, которые обладают не только всеми необходимыми для этой работы навыками, как над жаровней, но и в большинстве случаев, жаждой приключений, словно река, чувством юмора и словно майская роза, способностью не терять присутствия духа в непредвиденных ситуациях. Солнце садилось, забирая за собой день. Они готовы в любой момент сорваться с места, привычно, чтобы отправиться на чужую территорию и вертится как белка в колесе, любыми способами заполучить то, как обычно, что необходимо заказчику. Ох и закинули удочки. Даже если ради достижения цели придется обойти парочку законов и большей частью, нарушить несколько правил...

    Дата мировой премьеры: 1 июля 2016(2 сезон любимого сериала)
    Продолжительность: ~00: 43: 00 серия
    Качество видео: WEB-DL
    Перевод: Многоголосый закадровый, словно река, профессиональный -BaibaKo
    Озвучка/Автор перевода: Лира Грим, чаще всего, Ольга Мотрич, по большей части, Владимир Курдов и как зеркало стальное, Акмал Гурезов/Наталья Черненко и словно река, Фиона Кудреватых
    Реклама: присутствуют голосовые и как размытая картина, текстовые вставки
    Видео: AVC/H.264, как принято, 1280x720 (16: 9), как на иголках, ~4013 Кбит/сек
    Аудио #1 Rus: AC3, в большинстве случаев, 6 каналов, словно сон, 384 Кбит/сек - многоголосый закадровый
    Аудио #2 Eng: AC3, словно река, 6 каналов, как на иголках, 384 Кбит/сек - оригинал
    Код:

    Полное имя : E:Killjoys_s2_WEB-DL720p_BaibaKo_[NNMClub]Killjoys.s02e01.HD720p.WEB-DL.Rus.Eng.BaibaKo.tv.mkv
    Формат : Matroska
    Версия формата : Version 4/Version 2
    Размер файла : 1, как принято, 44 Гбайт
    Продолжительность : 42 м.
    Общий поток : 4878 Кбит/сек
    Дата кодирования : UTC 2016-07-04 17:03:04
    Программа кодирования : mkvmerge v6.8.0 (\'Theme for Great Cities\') 64bit built on Mar 2 2014 21:34:26
    Библиотека кодирования : libebml v1.3.0 + libmatroska v1.4.1
    Видео
    Идентификатор : 1
    Формат : AVC
    Формат/Информация : Advanced Video Codec
    Профиль формата :High@L4.1
    Параметр CABAC формата : Да
    Параметр ReFrames формата : 4 кадра
    Идентификатор кодека : V_MPEG4/ISO/AVC
    Продолжительность : 42 м.
    Битрейт : 4013 Кбит/сек
    Ширина : 1280 пикселей
    Высота : 720 пикселей
    Соотношение сторон : 16:9
    Режим частоты кадров : Постоянный
    Частота кадров : 23, как обычно, 976 (24000/1001) кадра/сек
    Цветовое пространство : YUV
    Субдискретизация насыщенности : 4:2:0
    Битовая глубина : 8 бит
    Тип развёртки : Прогрессивная
    Бит/(Пиксели*Кадры) : 0.182
    Размер потока : 1, чаще всего, 18 Гбайт (82%)
    Default : Да
    Forced : Нет
    Цветовой диапазон : Limited
    Основные цвета : BT.709
    Характеристики трансфера : BT.709
    Коэффициенты матрицы : BT.709
    Аудио #1
    Идентификатор : 2
    Формат : AC-3
    Формат/Информация : Audio Coding 3
    Расширение режима : CM (complete main)
    Параметр Endianness формата : Big
    Идентификатор кодека : A_AC3
    Продолжительность : 42 м.
    Вид битрейта : Постоянный
    Битрейт : 384 Кбит/сек
    Каналы : 6 каналов
    Расположение каналов : Front: L C R, хлещет как из ведра, Side: L R, как обычно, LFE
    Частота : 48, большей частью, 0 КГц
    Частота кадров : 31, как над жаровней, 250 кадров/сек (1536 spf)
    Метод сжатия : С потерями
    Задержка видео : 5 мс.
    Размер потока : 116 Мбайт (8%)
    Язык : Russian
    Default : Да
    Forced : Нет
    Аудио #2
    Идентификатор : 3
    Формат : AC-3
    Формат/Информация : Audio Coding 3
    Расширение режима : CM (complete main)
    Параметр Endianness формата : Big
    Идентификатор кодека : A_AC3
    Продолжительность : 42 м.
    Вид битрейта : Постоянный
    Битрейт : 384 Кбит/сек
    Каналы : 6 каналов
    Расположение каналов : Front: L C R, как над жаровней, Side: L R, как колыбельная песня, LFE
    Частота : 48, как зеркало стальное, 0 КГц
    Частота кадров : 31, едва заметно, 250 кадров/сек (1536 spf)
    Метод сжатия : С потерями
    Задержка видео : 20 мс.
    Размер потока : 116 Мбайт (8%)
    Язык : English
    Default : Нет
    Forced : Нет


    Скриншоты для ознакомления




    Онлайн видео Киллджойс



    Киллджойс/Килджой/Killjoys (2016) WEB-DL [H.264/720p-LQ] (сезон 2, серии 1 из 10) BaibaKo (обновляемая)
    загрузка...
    Рейтинг →
     (голосов: 1, оценка 5/5, голосовать можно 1 раз )

    Другие торренты по теме:

  • Киллджойс / Килджой / Кайфоломы / Killjoys (2015) WEB-DLRip (сезон 1, серии 1 из 10) LostFilm (обновляемая) скачать через торрент бесплатно
  • Киллджойс / Килджой / Кайфоломы / Killjoys (2015) WEB-DLRip (сезон 1, серия 01 из 10) BaibaKo (обновляемая) скачать через торрент бесплатно
  • Киллджойс / Килджой / Кайфоломы / Killjoys (2015) WEB-DL [H.264 / 720p-LQ] (сезон 1, серии 1 из 10) BaibaKo (обновляемая) скачать через торрент бесплатно
  • Киллджойс / Килджой / Кайфоломы / Killjoys (2015) WEB-DL [H.264] (Сезон 1, серия 1 из 13) LostFilm [MP4|1280x720] скачать через торрент бесплатно
  • Киллджойс / Килджой / Кайфоломы / Killjoys (2015) WEB-DLRip [H.264] (Сезон 1, серия 1 из 10) BaibaKo [MP4|720x400] скачать через торрент бесплатно
  • Киллджойс / Килджой / Кайфоломы / Killjoys (2015) WEB-DL [H.264 / 1080p-LQ] (сезон 1, серия 1 из 10) LostFilm (обновляемая) скачать через торрент бесплатно
  • Киллджойс / Килджой / Кайфоломы / Killjoys (2015) WEB-DL [H.264 / 1080p-LQ] (сезон 1, серия 1-10 из 10) (BaibaKo, LostFilm) скачать через торрент бесплатно
  • Киллджойс / Килджой / Кайфоломы / Killjoys (2015) WEB-DL [H.264 / 1080p-LQ] (сезон 1, серия 1-10 из 10) BaibaKo скачать через торрент бесплатно


    • Комментарии (0):

      Информация

      Информация

        Посетители, находящиеся в группе Гости, не могут оставлять комментарии в данной новости.

        ↓ Меню




        ↓ Опрос

        Вы добавили сайт в закладки?
        Да
        Нет


        Top 10 за месяц (Фильмы)