.
Авторизация | Регистрация
Хочешь лучшие торренты? Добавь свой email!
Добавить

Торрент скачать бесплатно

» » Дальнобойщики. Десять лет спустя (2011) WEBRip (сезон 3, серий 1-12 из 12) торрент скачать бесплатно




    Дальнобойщики. Десять лет спустя (2011) WEBRip (сезон 3, серий 1-12 из 12) торрент скачать бесплатно

    Опубликовал: Админ | Дата: 5-07-2016, 04:01 | Просмотров: 72

    Производство: Россия/ЗАО НТВ-Кино и ООО Киностудия 4
    Жанр: драма
    Режиссер: Марина Видинеева

    Актеры
    Сергей Друзьяк, Павел Сборщиков, Владимир Гостюхин, Андрей Бажин, Илья Комаров, Родион Толоконников, Дарья Повереннова, Юлиана Ромашина (Оррен), Наталья Егорова, Олег Мосалев и др.

    Описание

    Прошло 10 лет. Прикольно все это наверно придумал Халк потратив достаточно времени. На автобазе, где, по-прежнему, работает Федор Иванович, больших изменений не произошло, он как и десять лет назад, крутит баранку, колесит на своей фуре по российским дорогам, но только один, без напарника. Нет второго такого, как Сашок, так и не нашел ему Федор замену.История начинается в тот день, когда родные и близкие, да и вся автобаза, готовятся отметить юбилей Федора Ивановича. Только старый дальнобойщик не любит пышные торжества, поэтому, пока на базе накрывают столы, Федор Иванович на своем рабочем месте — за рулем фуры. Обычный рейс, груз сопровождает симпатичная молодая женщина Ирина. Но на дороге водителя часто подстерегают опасности…

    Возраст: 16+ (зрителям, достигшим 16 лет)
    Продолжительность: ~ 00: 45: 00 серия
    Качество видео: WEBRip
    Видео: Xvid, 720x400 (16: 9), ~2029 Kbps
    Аудио: AC3, 2 ch, 192 Kbps, CBR
    Код:

    Общее
    Полное имя : D:Мои фильмыDal\'nobojwiki_S3_1-12iz12_2011_XviD_WEBRip1.Юбилей.avi
    Формат : AVI
    Формат/Информация : Audio Video Interleave
    Размер файла : 745 Мбайт
    Продолжительность : 46 м.
    Общий поток : 2231 Кбит/сек
    Библиотека кодирования : VirtualDub build 35491/release
    Видео
    Идентификатор : 0
    Формат : MPEG-4 Visual
    Профиль формата : Advanced Simple@L5
    Параметр BVOP формата : 2
    Параметр QPel формата : Нет
    Параметр GMC формата : Без точки перехода
    Параметр матрицы формата : Default (H.263)
    Идентификатор кодека : XVID
    Идентификатор кодека/Подсказка : XviD
    Продолжительность : 46 м.
    Битрейт : 2029 Кбит/сек
    Ширина : 720 пикселей
    Высота : 400 пикселей
    Соотношение сторон : 16:9
    Частота кадров : 25, 000 кадров/сек
    Цветовое пространство : YUV
    Субдискретизация насыщенности : 4:2:0
    Битовая глубина : 8 бит
    Тип развёртки : Прогрессивная
    Метод сжатия : С потерями
    Бит/(Пиксели*Кадры) : 0.282
    Размер потока : 678 Мбайт (91%)
    Библиотека кодирования : XviD 67
    Аудио
    Идентификатор : 1
    Формат : AC-3
    Формат/Информация : Audio Coding 3
    Расширение режима : CM (complete main)
    Параметр Endianness формата : Big
    Идентификатор кодека : 2000
    Продолжительность : 46 м.
    Вид битрейта : Постоянный
    Битрейт : 192 Кбит/сек
    Каналы : 2 канала
    Расположение каналов : Front: L R
    Частота : 48, 0 КГц
    Частота кадров : 31, 250 кадров/сек (1536 spf)
    Метод сжатия : С потерями
    Размер потока : 64, 2 Мбайт (9%)
    Выравнивание : Соединение по промежуткам
    Продолжительность промежутка : 40 мс. (1, 00 видеокадр)
    Время предзагрузки промежутка : 512 мс.


    Скриншоты для ознакомления




    Онлайн видео Дальнобойщики. Десять лет спустя (2011) WEBRip (сезон любимого сериала 3, серий 1



    Дальнобойщики. Десять лет спустя (2011) WEBRip (сезон 3, серий 1-12 из 12)
    загрузка...
    Рейтинг →
     (голосов: 1, оценка 3/5, голосовать можно 1 раз )

    Другие торренты по теме:

  • Дальнобойщики (2001 - 2011) DVDRip, SATRip (сезон 1-3, серии 1-44 из 44) скачать через торрент бесплатно
  • Discovery. Реальные дальнобойщики / Outback Truckers (2014-2015) HDTVRip [Сезон 3, Серии 1-13 из 13] скачать через торрент бесплатно
  • Михаил Задорнов. Неформат 79. (Турция сбила самолёт, Крым без света, Дальнобойщики и Платон) (2015.12.04) WEB-DLRip [H.264 / 720p-LQ] скачать через торрент бесплатно
  • Михаил Задорнов. Неформат 79. (Турция сбила самолёт, Крым без света, Дальнобойщики и Платон) (2015.12.04) WEBRip скачать через торрент бесплатно
  • VA - Дальнобойщики. 100 шофёрских хитов (2015) [MP3|256 кб / с] <Шансон> скачать через торрент бесплатно
  • Дальнобойщики (2001) WEBRip [H.264] (20 серий из 20)
  • Дальнобойщики (2001) WEBRip (сезон 1, серий 1-20 из 20)
  • Дальнобойщики (2004) WEBRip (сезон 2, серий 1-12 из 12)


    • Комментарии (0):

      Информация

      Информация

        Посетители, находящиеся в группе Гости, не могут оставлять комментарии в данной новости.

        ↓ Меню




        ↓ Опрос

        Вы добавили сайт в закладки?
        Да
        Нет


        Top 10 за месяц (Фильмы)