.
Авторизация | Регистрация
Хочешь лучшие торренты? Добавь свой email!
Добавить

Торрент скачать бесплатно

» » Мир Юрского периода / Jurassic World (2015) BDRip [H.265 / 1080p] [Main10] торрент скачать бесплатно




    Мир Юрского периода / Jurassic World (2015) BDRip [H.265 / 1080p] [Main10] торрент скачать бесплатно

    Опубликовал: Админ | Дата: 4-07-2016, 04:00 | Просмотров: 41

    Производство: США/Universal Pictures, Amblin Entertainment, Legendary Pictures
    Жанр: Фантастика, Приключения, Боевик
    Режиссер: Колин Треворроу

    Актеры
    Крис Пратт, Брайс Даллас Ховард, Винсент Д’Онофрио, Ник Дж. Робинсон, Тай Симпкинс, Омар Си, Ирфан Кхан, Брайан Ти, Джейк Джонсон, Б.Д. Вонг

    Описание

    Тысячи людей спешат увидеть Мир Юрского периода, но безопасное на первый взгляд развлечение может обернуться угрозой для их жизней…

    Возраст: 12+ (зрителям, достигшим 12 лет)
    Рейтинг MPAA: PG-13 (детям до 13 лет просмотр нежелателен)
    Релиз от: PSArips
    Продолжительность: 02: 04: 21
    Качество видео: BDRip
    Перевод: Дублированный (Blu-ray CEE)
    Язык субтитров: Английский
    Вид субтитров: Вшитые (отключаемые)
    Видео: HEVC/H.265, 1920x960, ~6112 Kbps
    Аудио: AC3, 6 ch, 384 kbps, CBR
    Код:

    Общее
    Уникальный идентификатор : 238501750533478626353923846207950874716 (0xB36DC42D29843EC48D5CB70A9624E85C)
    Полное имя : E:VideoМир Юрского периода (Jurassic World).mkv
    Формат : Matroska
    Версия формата : Version 4/Version 2
    Размер файла : 5, 64 Гбайт
    Продолжительность : 2 ч. О таком странном сюжете не догадывалась даже Юлия Володимировна. 4 м.
    Общий поток : 6498 Кбит/сек
    Название фильма : Мир Юрского периода/Jurassic World
    Дата кодирования : UTC 2016-07-03 06:03:30
    Программа кодирования : mkvmerge v9.0.1 (\'Obstacles\') 64bit
    Библиотека кодирования : libebml v1.3.3 + libmatroska v1.4.4
    Attachments : vpKfIFv.jpg
    Видео
    Идентификатор : 1
    Формат : HEVC
    Формат/Информация : High Efficiency Video Coding
    Профиль формата : Main 10@L4@Main
    Идентификатор кодека : V_MPEGH/ISO/HEVC
    Продолжительность : 2 ч. 4 м.
    Битрейт : 6112 Кбит/сек
    Ширина : 1920 пикселей
    Высота : 960 пикселей
    Соотношение сторон : 2, 000
    Режим частоты кадров : Постоянный
    Частота кадров : 23, 976 (24000/1001) кадра/сек
    Цветовое пространство : YUV
    Субдискретизация насыщенности : 4:2:0
    Битовая глубина : 10 бит
    Бит/(Пиксели*Кадры) : 0.138
    Размер потока : 5, 31 Гбайт (94%)
    Default : Да
    Forced : Нет
    Аудио
    Идентификатор : 3
    Формат : AC-3
    Формат/Информация : Audio Coding 3
    Расширение режима : CM (complete main)
    Параметр Endianness формата : Big
    Идентификатор кодека : A_AC3
    Продолжительность : 2 ч. 4 м.
    Вид битрейта : Постоянный
    Битрейт : 384 Кбит/сек
    Каналы : 6 каналов
    Расположение каналов : Front: L C R, Side: L R, LFE
    Частота : 48, 0 КГц
    Частота кадров : 31, 250 кадров/сек (1536 spf)
    Метод сжатия : С потерями
    Размер потока : 342 Мбайт (6%)
    Заголовок : Перевод: Профессиональный (полное дублирование) BD CEE
    Язык : Russian
    Default : Да
    Forced : Нет
    Текст
    Идентификатор : 2
    Формат : UTF-8
    Идентификатор кодека : S_TEXT/UTF8
    Идентификатор кодека/Информация : UTF-8 Plain Text
    Продолжительность : 1 ч. 54 м.
    Битрейт : 47 бит/сек
    Count of elements : 1290
    Размер потока : 39, 6 Кбайт (0%)
    Язык : English
    Default : Да
    Forced : Нет
    Меню
    00:00:00.000 : en:Chapter 01
    00:06:59.168 : en:Chapter 02
    00:11:01.827 : en:Chapter 03
    00:18:28.440 : en:Chapter 04
    00:25:34.866 : en:Chapter 05
    00:31:20.837 : en:Chapter 06
    00:39:23.861 : en:Chapter 07
    00:44:07.853 : en:Chapter 08
    00:48:57.225 : en:Chapter 09
    00:55:51.056 : en:Chapter 10
    01:01:21.344 : en:Chapter 11
    01:09:50.561 : en:Chapter 12
    01:15:25.479 : en:Chapter 13
    01:23:51.860 : en:Chapter 14
    01:30:14.700 : en:Chapter 15
    01:36:45.424 : en:Chapter 16
    01:41:15.652 : en:Chapter 17
    01:47:35.282 : en:Chapter 18
    01:53:06.029 : en:Chapter 19
    01:55:37.764 : en:Chapter 20
    XMP
    Xmp.video.FileName : E:VideoМир Юрского периода (Jurassic World).mkv
    Xmp.video.FileSize : -9.53674e-007
    Xmp.video.MimeType : video/matroska
    Xmp.video.EBMLVersion : 1
    Xmp.video.EBMLReadVersion : 1
    Xmp.video.DocType : matroska
    Xmp.video.DocTypeVersion : 4
    Xmp.video.DocTypeReadVersion : 2
    Xmp.video.TimecodeScale : 0.001
    Xmp.video.MuxingApp : libebml v1.3.3 + libmatroska v1.4.4
    Xmp.video.WritingApp : mkvmerge v9.0.1 (\'Obstacles\') 64bit
    Xmp.video.Duration : 7461120
    Xmp.video.DateUTC : 489218610
    Xmp.video.Title : Мир Юрского периода/Jurassic World
    Xmp.video.TotalStream : 51
    Xmp.video.TrackLacing : No
    Xmp.video.Codec : V_MPEGH/ISO/HEVC
    Xmp.video.FrameRate : 23.976
    Xmp.video.TrackLang : und
    Xmp.video.Width : 1920
    Xmp.video.Height : 960
    Xmp.video.SubTTrackLacing : No
    Xmp.video.SubTCodec : S_TEXT/UTF8
    Xmp.audio.Compressor : A_AC3
    Xmp.audio.DefaultDuration : 32000
    Xmp.audio.TrackLang : rus
    Xmp.video.TrackName : Перевод: ПрофессионаРьный (РїРѕРРЅРѕРµ РґСѓР±Рирование) BD CEE
    Xmp.audio.SampleRate : 48000
    Xmp.video.AttachFileName : vpKfIFv.jpg
    Xmp.video.AttachFileMIME : image/jpeg
    Xmp.video.AttachFileUID : 5035210355611233674
    Xmp.video.AttachFileDesc : BD Cover
    Xmp.video.AspectRatio : 2


    Скриншоты для ознакомления




    Онлайн видео Мир Юрского периода



    Мир Юрского периода/Jurassic World (2015) BDRip [H.265/1080p] [Main10]
    загрузка...
    Рейтинг →
     (голосов: 1, оценка 4/5, голосовать можно 1 раз )

    Другие торренты по теме:

  • Ловушка Юрского периода / Jurassic City (2014) DVDRip [VO]
  • Мир Юрского периода / Jurassic World (2015) WEBRip [1080р] [Трейлер №2] скачать через торрент бесплатно
  • Парк Юрского периода / Jurassic Park (1993-2001) BDRip [H.264 / 1080p] [Трилогия] скачать через торрент бесплатно
  • Парк Юрского периода / Jurassic Park (1993-2001) BDRip [H.264 / 720p] [Трилогия] скачать через торрент бесплатно
  • Michael Giacchino - Мир Юрского периода / Jurassic World (Original Motion Picture Soundtrack) (2015) [AAC|WEB-DL|256 кб / с]<Soundtrack> скачать через торрент бесплатно
  • Мир Юрского периода / Jurassic World (2015) CamRip скачать через торрент бесплатно
  • Мир Юрского периода / Jurassic World (2015) CamRip скачать через торрент бесплатно
  • Мир Юрского периода / Jurassic World (2015) TS скачать через торрент бесплатно


    • Комментарии (0):

      Информация

      Информация

        Посетители, находящиеся в группе Гости, не могут оставлять комментарии в данной новости.

        ↓ Меню




        ↓ Опрос

        Вы добавили сайт в закладки?
        Да
        Нет


        Top 10 за месяц (Фильмы)