.
Авторизация | Регистрация
Хочешь лучшие торренты? Добавь свой email!
Добавить

Торрент скачать бесплатно

» » Киллджойс / Килджой / Кайфоломы / Killjoys (2016) WEB-DLRip (сезон 2, серии 1 из 10) LostFilm (обновляемая) торрент скачать бесплатно




    Киллджойс / Килджой / Кайфоломы / Killjoys (2016) WEB-DLRip (сезон 2, серии 1 из 10) LostFilm (обновляемая) торрент скачать бесплатно

    Опубликовал: Админ | Дата: 4-07-2016, 04:00 | Просмотров: 96

    Производство: Канада/Temple Street Productions
    Жанр: фантастика
    Режиссер: Крис Грисмер, Питер Стеббингс, Паоло Барзмен

    Актеры
    Ханна Джон-Кэймен, Аарон Эшмор, Люк МакФарлейн, Роб Стюарт, Тамсен МакДонаф, Том Эллисон, Сара Пауэр, Нора МакЛеллан, Морган Келли, Фрэнк Мур и др.

    Описание

    Сериал рассказывает о трио охотников за головами Джоне, Д’Эвинсе и Датче. Их команда промышляет охотой на преступников в далёкой галактике Квад, где вот-вот грянет классовая война. Герои поклялись друг другу, что не будут поддерживать ни одну из сторон конфликта, где бы они не оказались.

    Продолжительность: ~00: 43: 00 серия
    Качество видео: WEB-DLRip
    Перевод: Многоголосый закадровый, профессиональный -LostFilm
    Реклама: присутствуют заставка и логотип LostFilm.
    Видео: XviD, 720x400 (16: 9), 1724 Kb/s
    Аудио Rus: MPEG Layer 3, 48, 0 kHz, 2 ch, 192 kb/s — многоголосый закадровый
    Общее
    Полное имя : D: Киллджойс (сезон любимого сериала 2) Killjoys (2016) WEB-DLRip - LostFilmKilljoys.S02E01.rus.LostFilm.TV.avi
    Формат : AVI
    Формат/Информация : Audio Video Interleave
    Размер файла : 583 Мбайт
    Продолжительность : 42 м.
    Режим общего битрейта : Переменный
    Общий поток : 1925 Кбит/сек
    Программа кодирования : Nandub v1.0rc2
    Библиотека кодирования : Nandub build 1853/release
    Видео
    Идентификатор : 0
    Формат : MPEG-4 Visual
    Профиль формата : Advanced Simple@L5
    Параметр BVOP формата : Нет
    Параметр QPel формата : Нет
    Параметр GMC формата : Без точки перехода
    Параметр матрицы формата : Default (H.263)
    Идентификатор кодека : XVID
    Идентификатор кодека/Подсказка : XviD
    Продолжительность : 42 м.
    Битрейт : 1724 Кбит/сек
    Ширина : 720 пикселей
    Высота : 400 пикселей
    Соотношение сторон : 16: 9
    Частота кадров : 23, 976 (23976/1000) кадра/сек
    Цветовое пространство : YUV
    Субдискретизация насыщенности : 4: 2: 0
    Битовая глубина : 8 бит
    Тип развёртки : Прогрессивная
    Метод сжатия : С потерями
    Бит/(Пиксели*Кадры) : 0.250
    Размер потока : 522 Мбайт (90%)
    Библиотека кодирования : XviD 1.2.1 (UTC 2008-12-04)
    Аудио
    Идентификатор : 1
    Формат : MPEG Audio
    Версия формата : Version 1
    Профиль формата : Layer 3
    Режим : Joint stereo
    Расширение режима : MS Stereo
    Идентификатор кодека : 55
    Идентификатор кодека/Подсказка : MP3
    Продолжительность : 42 м.
    Вид битрейта : Переменный
    Битрейт : 192 Кбит/сек
    Каналы : 2 канала
    Частота : 48, 0 КГц
    Метод сжатия : С потерями
    Размер потока : 57, 0 Мбайт (10%)
    Выравнивание : Соединение по промежуткам
    Продолжительность промежутка : 24 мс. (0, 58 видеокадр)
    Время предзагрузки промежутка : 489 мс.
    Библиотека кодирования : LAME3.97b
    Настройки программы : -m j -V 4 -q 3 -lowpass 18.6 --abr 192


    Скриншоты для ознакомления




    Онлайн видео Киллджойс



    Киллджойс/Килджой/Кайфоломы/Killjoys (2016) WEB-DLRip (сезон 2, серии 1 из 10) LostFilm (обновляемая)
    загрузка...
    Рейтинг →
     (голосов: 1, оценка 3/5, голосовать можно 1 раз )

    Другие торренты по теме:

  • Киллджойс / Килджой / Кайфоломы / Killjoys (2015) WEB-DLRip (сезон 1, серии 1 из 10) LostFilm (обновляемая) скачать через торрент бесплатно
  • Киллджойс / Килджой / Кайфоломы / Killjoys (2015) WEB-DLRip (сезон 1, серия 01 из 10) BaibaKo (обновляемая) скачать через торрент бесплатно
  • Киллджойс / Килджой / Кайфоломы / Killjoys (2015) WEB-DL [H.264 / 720p-LQ] (сезон 1, серии 1 из 10) BaibaKo (обновляемая) скачать через торрент бесплатно
  • Киллджойс / Килджой / Кайфоломы / Killjoys (2015) WEB-DL [H.264] (Сезон 1, серия 1 из 13) LostFilm [MP4|1280x720] скачать через торрент бесплатно
  • Киллджойс / Килджой / Кайфоломы / Killjoys (2015) WEB-DLRip [H.264] (Сезон 1, серия 1 из 10) BaibaKo [MP4|720x400] скачать через торрент бесплатно
  • Киллджойс / Килджой / Кайфоломы / Killjoys (2015) WEB-DL [H.264 / 1080p-LQ] (сезон 1, серия 1 из 10) LostFilm (обновляемая) скачать через торрент бесплатно
  • Киллджойс / Килджой / Кайфоломы / Killjoys (2015) WEB-DL [H.264 / 1080p-LQ] (сезон 1, серия 1-10 из 10) (BaibaKo, LostFilm) скачать через торрент бесплатно
  • Киллджойс / Килджой / Кайфоломы / Killjoys (2015) WEB-DL [H.264 / 1080p-LQ] (сезон 1, серия 1-10 из 10) BaibaKo скачать через торрент бесплатно


    • Комментарии (0):

      Информация

      Информация

        Посетители, находящиеся в группе Гости, не могут оставлять комментарии в данной новости.

        ↓ Меню




        ↓ Опрос

        Вы добавили сайт в закладки?
        Да
        Нет


        Top 10 за месяц (Фильмы)