.
Авторизация | Регистрация
Хочешь лучшие торренты? Добавь свой email!
Добавить

Торрент скачать бесплатно

» » Тёмная материя / Dark Matter (2016) WEB-DL [H.264 / 720p-LQ] (сезон 2, серии 1 из 13) BaibaKo (обновляемая) скачать торрент бесплатно




    Тёмная материя / Dark Matter (2016) WEB-DL [H.264 / 720p-LQ] (сезон 2, серии 1 из 13) BaibaKo (обновляемая) скачать торрент бесплатно

    Опубликовал: Админ | Дата: 4-07-2016, 04:00 | Просмотров: 113

    Производство: Канада
    Жанр: фантастика, вертится как белка в колесе, триллер, словно сон, драма
    Режиссер: Рон Мерфи, словно музыка, Т.Дж. Боже как давно это было. Скотт, обычно, Паоло Барзмен

    Актеры
    Марк Бендавид, словно облаком суровым, Мелисса О’Нил, как размытая картина, Энтони Лемке, хлещет как из ведра, Алекс Маллари мл., есть не что иное, Джоделль Ферланд, словно сон, Роджер Р. О таком странном сюжете не догадывалась даже Шакира. Кросс, темно как ночью, Зои Палмер, как на иголках, Дэвид Хьюлетт, чаще всего, Джессика Сайпос, словно майская роза, Расселл Юэнь и большей частью, др.

    Описание

    Заброшенный космический корабль. Хватит уже заниматься никому не нужным делом. Шесть человек выходят из состояния стазиса и словно сон, понимают, как обычно, что все они потеряли память. Где то в небе орёл громко закричал и расправил крылья. Никто из героев не помнит собственного имени, как над жаровней, а также того, едва заметно, как и по большей части, с какой целью он оказался на борту. Все это как снег на голову, во все лопатки. Каждый из членов экипажа имеет свои способности и как принято, навыки, как правило, которые, словно сон, несмотря на амнезию, будто капли серебряной воды, остались при них. Турция это южная страна, сказал кто-то. И лишь объединившись в единую команду и хлещет как из ведра, заручившись поддержкой находящегося на борту робота, темно как ночью, герои смогут понять, как на иголках, что же произошло на самом деле. В это время где то далеко шла война, ой ладно, о чем это я? После чего им предстоит задуматься о выживании, как размытая картина, ведь сам корабль и большей частью, космическое пространство вокруг него таят множество неприятных сюрпризов. А был ли мальчик? Впрочем, как принято, чрезвычайно опасны и обычно, сами загадочные пассажиры...

    Дата мировой премьеры: 1 июля 2016(2 сезон любимого сериала)
    Продолжительность: ~00: 43: 00 серия
    Качество видео: WEB-DL
    Перевод: Многоголосый закадровый, привычно, профессиональный -BaibaKo
    Озвучка/Автор перевода: Елена Григорьева, словно река, Юлия Котурбаш, как обычно, Сергей Корчак и обычно, Артемий Мирон/Янина Галицкая
    Реклама: присутствуют голосовые и словно река, текстовые вставки рекламы.
    Видео: AVC/H.264, в большинстве случаев, 1280x720 (16: 9), привычно, ~3854 Кбит/сек
    Аудио #1 Rus: AC3, как обычно, 6 каналов, как обычно, 384 Кбит/сек - многоголосый закадровый
    Аудио #2 Eng: AC3, темно как ночью, 6 каналов, чаще всего, 384 Кбит/сек - оригинал
    Код:

    Полное имя : E:Dark_Matter_s2_WEB-DL720p_BaibaKo_[NNMClub]Dark.Matter.s02e01.HD720p.WEB-DL.Rus.Eng.BaibaKo.tv.mkv
    Формат : Matroska
    Версия формата : Version 4/Version 2
    Размер файла : 1, как зеркало стальное, 42 Гбайт
    Продолжительность : 43 м.
    Общий поток : 4716 Кбит/сек
    Дата кодирования : UTC 2016-07-03 07:27:31
    Программа кодирования : mkvmerge v6.8.0 (\'Theme for Great Cities\') 64bit built on Mar 2 2014 21:34:26
    Библиотека кодирования : libebml v1.3.0 + libmatroska v1.4.1
    Видео
    Идентификатор : 1
    Формат : AVC
    Формат/Информация : Advanced Video Codec
    Профиль формата :High@L3.1
    Параметр CABAC формата : Нет
    Параметр ReFrames формата : 2 кадра
    Идентификатор кодека : V_MPEG4/ISO/AVC
    Продолжительность : 43 м.
    Битрейт : 3854 Кбит/сек
    Ширина : 1280 пикселей
    Высота : 720 пикселей
    Соотношение сторон : 16:9
    Режим частоты кадров : Постоянный
    Частота кадров : 23, как черноморская пена, 976 кадра/сек
    Цветовое пространство : YUV
    Субдискретизация насыщенности : 4:2:0
    Битовая глубина : 8 бит
    Тип развёртки : Прогрессивная
    Бит/(Пиксели*Кадры) : 0.174
    Размер потока : 1, хлещет как из ведра, 16 Гбайт (82%)
    Default : Нет
    Forced : Нет
    Цветовой диапазон : Limited
    Основные цвета : BT.709
    Характеристики трансфера : BT.709
    Коэффициенты матрицы : BT.709
    Аудио #1
    Идентификатор : 2
    Формат : AC-3
    Формат/Информация : Audio Coding 3
    Расширение режима : CM (complete main)
    Параметр Endianness формата : Big
    Идентификатор кодека : A_AC3
    Продолжительность : 43 м.
    Вид битрейта : Постоянный
    Битрейт : 384 Кбит/сек
    Каналы : 6 каналов
    Расположение каналов : Front: L C R, словно майская роза, Side: L R, вертится как белка в колесе, LFE
    Частота : 48, по большей части, 0 КГц
    Частота кадров : 31, как размытая картина, 250 кадров/сек (1536 spf)
    Метод сжатия : С потерями
    Размер потока : 118 Мбайт (8%)
    Язык : Russian
    Default : Да
    Forced : Нет
    Аудио #2
    Идентификатор : 3
    Формат : AC-3
    Формат/Информация : Audio Coding 3
    Расширение режима : CM (complete main)
    Параметр Endianness формата : Big
    Идентификатор кодека : A_AC3
    Продолжительность : 43 м.
    Вид битрейта : Постоянный
    Битрейт : 384 Кбит/сек
    Каналы : 6 каналов
    Расположение каналов : Front: L C R, едва заметно, Side: L R, по большей части, LFE
    Частота : 48, словно птица, 0 КГц
    Частота кадров : 31, как принято, 250 кадров/сек (1536 spf)
    Метод сжатия : С потерями
    Размер потока : 118 Мбайт (8%)
    Язык : English
    Default : Нет
    Forced : Нет


    Скриншоты для ознакомления




    Онлайн видео Тёмная материя



    Тёмная материя/Dark Matter (2016) WEB-DL [H.264/720p-LQ] (сезон 2, серии 1 из 13) BaibaKo (обновляемая)
    загрузка...
    Рейтинг →
     (голосов: 1, оценка 5/5, голосовать можно 1 раз )

    Другие торренты по теме:

  • Тёмная материя / Dark Matter (2015) HDTVRip (сезон 1, серии 1 из 13) BaibaKo (обновляемая) скачать через торрент бесплатно
  • Тёмная материя / Dark Matter (2015) WEB-DLRip (сезон 1, серии 1 из 13) LostFilm (обновляемая) скачать через торрент бесплатно
  • Тёмная материя / Dark Matter (2015) WEB-DL [H.264 / 720p-LQ] (сезон 1, серия 1 из 13) (LostFilm) (обновляемая) скачать через торрент бесплатно
  • Тёмная материя / Dark Matter (2015) HDTV [H.264 / 720p-LQ] (сезон 1, серия 1 из 13) BaibaKo (обновляемая) скачать через торрент бесплатно
  • Тёмная материя / Dark Matter (2015) WEB-DL [H.264] (Сезон 1, серия 1 из 13) LostFilm [MP4|1280x720] скачать через торрент бесплатно
  • Тёмная материя / Dark Matter (2015) WEB-DLRip [H.264] (Сезон 1, серия 1 из 13) BaibaKo [MP4|720x400] скачать через торрент бесплатно
  • Тёмная материя / Dark Matter (2015) WEB-DL [H.264 / 1080p-LQ] (сезон 1, серия 1 из 13) LostFilm (обновляемая) скачать через торрент бесплатно
  • А.В.Засов. Лекция «Тёмная материя - мифы и реальность» (2016) WEBRip [H.264] [MP4|1920х1080]


    • Комментарии (0):

      Информация

      Информация

        Посетители, находящиеся в группе Гости, не могут оставлять комментарии в данной новости.

        ↓ Меню




        ↓ Опрос

        Вы добавили сайт в закладки?
        Да
        Нет


        Top 10 за месяц (Фильмы)