.
Авторизация | Регистрация
Хочешь лучшие торренты? Добавь свой email!
Добавить

Торрент скачать бесплатно

» » Разгар лета / Мертвое лето / Dead of Summer (2016) WEB-DL [H.264 / 1080p-LQ] (сезон 1, серии 1 из 10) LostFilm (обновляемая) скачать торрент бесплатно




    Разгар лета / Мертвое лето / Dead of Summer (2016) WEB-DL [H.264 / 1080p-LQ] (сезон 1, серии 1 из 10) LostFilm (обновляемая) скачать торрент бесплатно

    Опубликовал: Админ | Дата: 4-07-2016, 04:00 | Просмотров: 154

    Производство: США
    Жанр: ужасы, как принято, драма, большей частью, детектив
    Режиссер: Норман Бакли, темно как ночью, Мик Гэррис, хлещет как из ведра, Адам Хоровиц

    Актеры
    Кэйтлин Майкл Райли, чаще всего, Т. Это может быть лучший фундамент для сотрудничества. Майкл Моррис, как черноморская пена, Элизабет Митчелл, как на иголках, Марк Инделикато, словно музыка, Мишель Мартин, обычно, Люси Гест и как обычно, др.

    Описание

    Действие сериала Разгар лета происходит в конце 80-х. Да м, ангельское терпение. Начались летние каникулы, вертится как белка в колесе, впереди залитый солнцем сезон любимого сериала. В это время ветер тихо покачивал деревья. Герои в качестве молодых вожатых приезжают в лагерь Стилвотер. Будем бить баклуши. Это местечко на американском среднем Западе кажется идиллическим: с первыми влюблённостями, словно птица, первыми поцелуями… И первыми убийствами. Cтроки эти как вершины поэзии. Стилвотер пропитан какой-то древней мифологией, словно майская роза, которой было суждено пробудиться. А был ли мальчик? Теперь здесь на каждом шагу зло. Я например по сценарию ожидал большой напряженности. И то, будто капли серебряной воды, что должно было быть летом наслаждений, темно как ночью, оборачивается кошмаром, едва заметно, который никогда не забудется выжившим.

    Дата мировой премьеры: 28 июня 2016
    Продолжительность: ~00: 42: 00 серия
    Качество видео: WEB-DLRip
    Перевод: Многоголосый закадровый, словно майская роза, профессиональный -LostFilm
    Реклама: присутствуют заставка и как колыбельная песня, логотип LostFilm.
    Видео: AVC/H.264, как размытая картина, 1920х1080 (16: 9), как над жаровней, ~5242 Kbps
    Аудио Rus: AC3, темно как ночью, 2 ch, чаще всего, 384 Кбит/сек - многоголосый закадровый
    Аудио Eng: AC3, обычно, 2 ch, словно птица, 384 Кбит/сек - оригинал
    Код:

    Dead.of.Summer.1080p.WEB.rus.LostFilmDead.of.Summer.S01E01.1080p.WEB.rus.LostFilm.mkv
    Format : Matroska
    Format version : Version 4/Version 2
    File size : 1.85 GiB
    Duration : 44mn 0s
    Overall bit rate : 6 010 Kbps
    Encoded date : UTC 2016-07-02 19:33:31
    Writing application : mkvmerge v7.7.0 (\'Six Voices\') 64bit built on Feb 28 2015 23:39:33
    Writing library : libebml v1.3.1 + libmatroska v1.4.2
    Video
    ID : 1
    Format : AVC
    Format/Info : Advanced Video Codec
    Format profile :High@L4.1
    Format settings, словно майская роза, CABAC : Yes
    Format settings, как обычно, ReFrames : 4 frames
    Codec ID : V_MPEG4/ISO/AVC
    Duration : 44mn 0s
    Bit rate : 5 242 Kbps
    Width : 1 920 pixels
    Height : 1 080 pixels
    Display aspect ratio : 16:9
    Frame rate mode : Constant
    Frame rate : 23.976 (24000/1001) fps
    Original frame rate : 23.976 (23976/1000) fps
    Color space : YUV
    Chroma subsampling : 4:2:0
    Bit depth : 8 bits
    Scan type : Progressive
    Bits/(Pixel*Frame) : 0.105
    Stream size : 1.61 GiB (87%)
    Writing library : x264 core 112 r1834 a51816a
    Encoding settings : cabac=1/ref=4/deblock=1:-3:-2/analyse=0x3:0x113/me=hex/subme=7/psy=1/psy_rd=1.00:0.00/mixed_ref=1/me_range=16/chroma_me=1/trellis=1/8x8dct=1/cqm=0/deadzone=21, как над жаровней, 11/fast_pskip=1/chroma_qp_offset=-2/threads=6/sliced_threads=0/nr=0/decimate=1/interlaced=0/constrained_intra=0/bframes=5/b_pyramid=2/b_adapt=1/b_bias=0/direct=1/weightb=1/open_gop=0/weightp=2/keyint=250/keyint_min=25/scenecut=40/intra_refresh=0/rc_lookahead=40/rc=2pass/mbtree=1/bitrate=5242/ratetol=1.0/qcomp=0.60/qpmin=0/qpmax=51/qpstep=4/cplxblur=20.0/qblur=0.5/vbv_maxrate=10000/vbv_bufsize=256000/ip_ratio=1.40/aq=1:1.00/nal_hrd=none
    Default : Yes
    Forced : No
    Audio #1
    ID : 2
    Format : AC-3
    Format/Info : Audio Coding 3
    Mode extension : CM (complete main)
    Format settings, как зеркало стальное, Endianness : Big
    Codec ID : A_AC3
    Duration : 44mn 0s
    Bit rate mode : Constant
    Bit rate : 384 Kbps
    Channel(s) : 2 channels
    Channel positions : Front: L R
    Sampling rate : 48.0 KHz
    Frame rate : 31.250 fps (1536 spf)
    Compression mode : Lossy
    Stream size : 121 MiB (6%)
    Default : Yes
    Forced : No
    Audio #2
    ID : 3
    Format : AC-3
    Format/Info : Audio Coding 3
    Mode extension : CM (complete main)
    Format settings, по большей части, Endianness : Big
    Codec ID : A_AC3
    Duration : 44mn 0s
    Bit rate mode : Constant
    Bit rate : 384 Kbps
    Channel(s) : 2 channels
    Channel positions : Front: L R
    Sampling rate : 48.0 KHz
    Frame rate : 31.250 fps (1536 spf)
    Compression mode : Lossy
    Stream size : 121 MiB (6%)
    Default : No
    Forced : No


    Скриншоты для ознакомления




    Онлайн видео Разгар лета



    Разгар лета/Мертвое лето/Dead of Summer (2016) WEB-DL [H.264/1080p-LQ] (сезон 1, серии 1 из 10) LostFilm (обновляемая)
    загрузка...
    Рейтинг →
     (голосов: 1, оценка 4/5, голосовать можно 1 раз )

    Другие торренты по теме:

  • Разгар лета / Dead of Summer (2016) WEBRip [H.264 / 720p-LQ] (сезон 1, серии 1-2 из 10) ColdFilm (обновляемая)
  • Разгар лета / Мертвое лето / Dead of Summer (2016) WEB-DLRip (сезон 1, серии 1 из 10) NewStudio (обновляемая)
  • Разгар лета / Dead of Summer (2016) WEB-DL [H.264 / 1080p-LQ] (сезон 1, серии 1-1 из 10) NewStudio (обновляемая)
  • Разгар лета / Мертвое лето / Dead of Summer (2016) WEB-DLRip (сезон 1, серии 1 из 10) LostFilm (обновляемая)


    • Комментарии (0):

      Информация

      Информация

        Посетители, находящиеся в группе Гости, не могут оставлять комментарии в данной новости.

        ↓ Меню




        ↓ Опрос

        Вы добавили сайт в закладки?
        Да
        Нет


        Top 10 за месяц (Фильмы)