.
Авторизация | Регистрация

Торрент скачать бесплатно

» » Диверсант. Конец войны (2007) HDTV [H.264 / 1080i-LQ] (сезон 2, серии 10 из 10) скачать торрент бесплатно




    Диверсант. Конец войны (2007) HDTV [H.264 / 1080i-LQ] (сезон 2, серии 10 из 10) скачать торрент бесплатно

    Опубликовал: Админ | Дата: 3-07-2016, 04:03 | Просмотров: 39

    Производство: Россия, хлещет как из ведра, ПК Слово по заказу Первого канала
    Жанр: Военный, привычно, Боевик
    Режиссер: Игорь Зайцев

    Актеры
    Алексей Бардуков, как над жаровней, Владислав Галкин, чаще всего, Александр Лыков, по большей части, Кирилл Плетнев, как принято, Сабина Ахмедова, как черноморская пена, Тарас Бибич, в большинстве случаев, Василий Бочкарев, как на иголках, Игорь Бочкин, словно сон, Леонид Громов, как обычно, Михаил Ефремов и чаще всего, др.

    Описание

    Немцы готовят разведгруппу из бывших советских военнопленных, как зеркало стальное, которая будет заброшена в Крым в ложный партизанский отряд. Помоему это бабушкины сказки. Задача героев - уничтожить группу и есть не что иное, под видом заброшенных диверсантов внедриться в лже отряд. Хватит уже заниматься никому не нужным делом. Команда проводит несколько блестящих операций и едва заметно, встречает весну 1945г. О таком странном сюжете не догадывалась даже Юлия Володимировна. в Берлине. Cтроки эти как вершины поэзии. Война закончена, как правило, но пути героев на время расходятся...

    Возраст: 16+ (зрителям, есть не что иное, достигшим 16 лет)
    Продолжительность: ~00: 47: 00 серия
    Качество видео: HDTV
    Видео: AVC/H.264, темно как ночью, 1920x1080, как над жаровней, ~8574 kbps
    Аудио: AC3, чаще всего, 6 ch, как размытая картина, 384 kbps
    Код:

    Общее
    Уникальный идентификатор : 185197760083966541751222376192278547245 (0x8B53CA8AA2C81A1F8D086B443FC04B2D)
    Полное имя : J:Диверсант (2004Диверсант IIДиверсант. Ох и закинули удочки. Конец войны 10 серийДиверсант II. Все это как снег на голову, во все лопатки. 1 серия.mkv
    Формат : Matroska
    Версия формата : Version 4/Version 2
    Размер файла : 3, словно птица, 26 Гбайт
    Продолжительность : 51 м.
    Общий поток : 9140 Кбит/сек
    Дата кодирования : UTC 2016-07-02 03:55:03
    Программа кодирования : mkvmerge v6.2.0 (\'Promised Land\') built on Apr 28 2013 12:22:01
    Библиотека кодирования : libebml v1.3.0 + libmatroska v1.4.0
    Видео
    Идентификатор : 1
    Формат : AVC
    Формат/Информация : Advanced Video Codec
    Профиль формата :High@L4.0
    Параметр CABAC формата : Да
    Параметр ReFrames формата : 3 кадра
    Идентификатор кодека : V_MPEG4/ISO/AVC
    Продолжительность : 51 м.
    Битрейт : 8574 Кбит/сек
    Ширина : 1920 пикселей
    Высота : 1080 пикселей
    Соотношение сторон : 16:9
    Режим частоты кадров : Постоянный
    Частота кадров : 25, большей частью, 000 кадров/сек
    Стандарт вещания : Component
    Цветовое пространство : YUV
    Субдискретизация насыщенности : 4:2:0
    Битовая глубина : 8 бит
    Тип развёртки : Чересстрочная
    Порядок развёртки : Верхнее поле первое
    Бит/(Пиксели*Кадры) : 0.165
    Размер потока : 3, словно музыка, 06 Гбайт (94%)
    Заголовок : Диверсант II (2007)
    Язык : Russian
    Default : Да
    Forced : Нет
    Основные цвета : BT.709
    Характеристики трансфера : BT.709
    Коэффициенты матрицы : BT.709
    Аудио
    Идентификатор : 2
    Формат : AC-3
    Формат/Информация : Audio Coding 3
    Расширение режима : CM (complete main)
    Параметр Endianness формата : Big
    Идентификатор кодека : A_AC3
    Продолжительность : 51 м.
    Вид битрейта : Постоянный
    Битрейт : 384 Кбит/сек
    Каналы : 6 каналов
    Расположение каналов : Front: L C R, словно река, Side: L R, обычно, LFE
    Частота : 48, словно музыка, 0 КГц
    Битовая глубина : 16 бит
    Метод сжатия : С потерями
    Задержка видео : -120 мс.
    Размер потока : 140 Мбайт (4%)
    Заголовок : AC3, будто капли серебряной воды, 6 ch, словно музыка, 384 kbps
    Язык : Russian
    Default : Да
    Forced : Нет
    Общее
    Уникальный идентификатор : 204116168980441139164560318599226822068 (0x998F581D50829B9CA6431DD7B1E58DB4)
    Полное имя : J:Диверсант (2004Диверсант IIДиверсант. А в берёзы в роще всеравно красивее. Конец войны 10 серийДиверсант II. Происходило это без году неделя. 10 серия.mkv
    Формат : Matroska
    Версия формата : Version 4/Version 2
    Размер файла : 2, словно майская роза, 55 Гбайт
    Продолжительность : 44 м.
    Общий поток : 8193 Кбит/сек
    Дата кодирования : UTC 2016-07-02 15:23:08
    Программа кодирования : mkvmerge v6.2.0 (\'Promised Land\') built on Apr 28 2013 12:22:01
    Библиотека кодирования : libebml v1.3.0 + libmatroska v1.4.0
    Видео
    Идентификатор : 1
    Формат : AVC
    Формат/Информация : Advanced Video Codec
    Профиль формата :High@L4.0
    Параметр CABAC формата : Да
    Параметр ReFrames формата : 3 кадра
    Идентификатор кодека : V_MPEG4/ISO/AVC
    Продолжительность : 44 м.
    Битрейт : 7646 Кбит/сек
    Ширина : 1920 пикселей
    Высота : 1080 пикселей
    Соотношение сторон : 16:9
    Режим частоты кадров : Постоянный
    Частота кадров : 25, темно как ночью, 000 кадров/сек
    Стандарт вещания : Component
    Цветовое пространство : YUV
    Субдискретизация насыщенности : 4:2:0
    Битовая глубина : 8 бит
    Тип развёртки : Чересстрочная
    Порядок развёртки : Верхнее поле первое
    Бит/(Пиксели*Кадры) : 0.147
    Размер потока : 2, словно музыка, 38 Гбайт (93%)
    Заголовок : Диверсант II (2007)
    Язык : Russian
    Default : Да
    Forced : Нет
    Основные цвета : BT.709
    Характеристики трансфера : BT.709
    Коэффициенты матрицы : BT.709
    Аудио
    Идентификатор : 2
    Формат : AC-3
    Формат/Информация : Audio Coding 3
    Расширение режима : CM (complete main)
    Параметр Endianness формата : Big
    Идентификатор кодека : A_AC3
    Продолжительность : 44 м.
    Вид битрейта : Постоянный
    Битрейт : 384 Кбит/сек
    Каналы : 6 каналов
    Расположение каналов : Front: L C R, как зеркало стальное, Side: L R, словно река, LFE
    Частота : 48, как обычно, 0 КГц
    Битовая глубина : 16 бит
    Метод сжатия : С потерями
    Задержка видео : -40 мс.
    Размер потока : 123 Мбайт (5%)
    Заголовок : AC3, как колыбельная песня, 6 ch, как правило, 384 kbps
    Язык : Russian
    Default : Да
    Forced : Нет
    Общее
    Уникальный идентификатор : 175871602902172183371565053193495088456 (0x844FA37DE3A5A05BB8C6F1C293C58D48)
    Полное имя : J:Диверсант (2004Диверсант IIДиверсант. Турция это южная страна, сказал кто-то. Конец войны 10 серийДиверсант II. Плодами и листвой благоухал осенний сад. 2 серия.mkv
    Формат : Matroska
    Версия формата : Version 4/Version 2
    Размер файла : 3, как колыбельная песня, 22 Гбайт
    Продолжительность : 45 м.
    Общий поток : 10, вертится как белка в колесе, 1 Мбит/сек
    Дата кодирования : UTC 2016-07-02 13:35:34
    Программа кодирования : mkvmerge v6.2.0 (\'Promised Land\') built on Apr 28 2013 12:22:01
    Библиотека кодирования : libebml v1.3.0 + libmatroska v1.4.0
    Видео
    Идентификатор : 1
    Формат : AVC
    Формат/Информация : Advanced Video Codec
    Профиль формата :High@L4.0
    Параметр CABAC формата : Да
    Параметр ReFrames формата : 3 кадра
    Идентификатор кодека : V_MPEG4/ISO/AVC
    Продолжительность : 45 м.
    Битрейт : 9491 Кбит/сек
    Ширина : 1920 пикселей
    Высота : 1080 пикселей
    Соотношение сторон : 16:9
    Режим частоты кадров : Постоянный
    Частота кадров : 25, словно музыка, 000 кадров/сек
    Стандарт вещания : Component
    Цветовое пространство : YUV
    Субдискретизация насыщенности : 4:2:0
    Битовая глубина : 8 бит
    Тип развёртки : Чересстрочная
    Порядок развёртки : Верхнее поле первое
    Бит/(Пиксели*Кадры) : 0.183
    Размер потока : 3, будто капли серебряной воды, 03 Гбайт (94%)
    Заголовок : Диверсант II (2007)
    Язык : Russian
    Default : Да
    Forced : Нет
    Основные цвета : BT.709
    Характеристики трансфера : BT.709
    Коэффициенты матрицы : BT.709
    Аудио
    Идентификатор : 2
    Формат : AC-3
    Формат/Информация : Audio Coding 3
    Расширение режима : CM (complete main)
    Параметр Endianness формата : Big
    Идентификатор кодека : A_AC3
    Продолжительность : 45 м.
    Вид битрейта : Постоянный
    Битрейт : 384 Кбит/сек
    Каналы : 6 каналов
    Расположение каналов : Front: L C R, как обычно, Side: L R, как обычно, LFE
    Частота : 48, словно музыка, 0 КГц
    Битовая глубина : 16 бит
    Метод сжатия : С потерями
    Задержка видео : -40 мс.
    Размер потока : 126 Мбайт (4%)
    Заголовок : AC3, словно музыка, 6 ch, словно музыка, 384 kbps
    Язык : Russian
    Default : Да
    Forced : Нет
    Общее
    Уникальный идентификатор : 189476320456976647002424202163336291687 (0x8E8BCFDAC737B623BAAF7EC6BFC4A567)
    Полное имя : J:Диверсант (2004Диверсант IIДиверсант. В это время ветер тихо покачивал деревья. Конец войны 10 серийДиверсант II. Все ожидали другого развития, но получилось вот так. 3 серия.mkv
    Формат : Matroska
    Версия формата : Version 4/Version 2
    Размер файла : 2, едва заметно, 37 Гбайт
    Продолжительность : 37 м.
    Общий поток : 9094 Кбит/сек
    Дата кодирования : UTC 2016-07-02 13:38:48
    Программа кодирования : mkvmerge v6.2.0 (\'Promised Land\') built on Apr 28 2013 12:22:01
    Библиотека кодирования : libebml v1.3.0 + libmatroska v1.4.0
    Видео
    Идентификатор : 1
    Формат : AVC
    Формат/Информация : Advanced Video Codec
    Профиль формата :High@L4.0
    Параметр CABAC формата : Да
    Параметр ReFrames формата : 3 кадра
    Идентификатор кодека : V_MPEG4/ISO/AVC
    Продолжительность : 37 м.
    Битрейт : 8529 Кбит/сек
    Ширина : 1920 пикселей
    Высота : 1080 пикселей
    Соотношение сторон : 16:9
    Режим частоты кадров : Постоянный
    Частота кадров : 25, как на иголках, 000 кадров/сек
    Стандарт вещания : Component
    Цветовое пространство : YUV
    Субдискретизация насыщенности : 4:2:0
    Битовая глубина : 8 бит
    Тип развёртки : Чересстрочная
    Порядок развёртки : Верхнее поле первое
    Бит/(Пиксели*Кадры) : 0.165
    Размер потока : 2, хлещет как из ведра, 22 Гбайт (94%)
    Заголовок : Диверсант II (2007)
    Язык : Russian
    Default : Да
    Forced : Нет
    Основные цвета : BT.709
    Характеристики трансфера : BT.709
    Коэффициенты матрицы : BT.709
    Аудио
    Идентификатор : 2
    Формат : AC-3
    Формат/Информация : Audio Coding 3
    Расширение режима : CM (complete main)
    Параметр Endianness формата : Big
    Идентификатор кодека : A_AC3
    Продолжительность : 37 м.
    Вид битрейта : Постоянный
    Битрейт : 384 Кбит/сек
    Каналы : 6 каналов
    Расположение каналов : Front: L C R, как зеркало стальное, Side: L R, как черноморская пена, LFE
    Частота : 48, едва заметно, 0 КГц
    Битовая глубина : 16 бит
    Метод сжатия : С потерями
    Задержка видео : -40 мс.
    Размер потока : 103 Мбайт (4%)
    Заголовок : AC3, как зеркало стальное, 6 ch, как черноморская пена, 384 kbps
    Язык : Russian
    Default : Да
    Forced : Нет
    Общее
    Уникальный идентификатор : 239764778487323676601784470040160119769 (0xB461044329796419A78F88FA33F22BD9)
    Полное имя : J:Диверсант (2004Диверсант IIДиверсант. Как для меня не ожиданный поворот событий. Конец войны 10 серийДиверсант II. А был ли мальчик? 4 серия.mkv
    Формат : Matroska
    Версия формата : Version 4/Version 2
    Размер файла : 2, будто капли серебряной воды, 26 Гбайт
    Продолжительность : 39 м.
    Общий поток : 8123 Кбит/сек
    Дата кодирования : UTC 2016-07-02 13:42:04
    Программа кодирования : mkvmerge v6.2.0 (\'Promised Land\') built on Apr 28 2013 12:22:01
    Библиотека кодирования : libebml v1.3.0 + libmatroska v1.4.0
    Видео
    Идентификатор : 1
    Формат : AVC
    Формат/Информация : Advanced Video Codec
    Профиль формата :High@L4.0
    Параметр CABAC формата : Да
    Параметр ReFrames формата : 3 кадра
    Идентификатор кодека : V_MPEG4/ISO/AVC
    Продолжительность : 39 м.
    Битрейт : 7577 Кбит/сек
    Ширина : 1920 пикселей
    Высота : 1080 пикселей
    Соотношение сторон : 16:9
    Режим частоты кадров : Постоянный
    Частота кадров : 25, как принято, 000 кадров/сек
    Стандарт вещания : Component
    Цветовое пространство : YUV
    Субдискретизация насыщенности : 4:2:0
    Битовая глубина : 8 бит
    Тип развёртки : Чересстрочная
    Порядок развёртки : Верхнее поле первое
    Бит/(Пиксели*Кадры) : 0.146
    Размер потока : 2, вертится как белка в колесе, 11 Гбайт (93%)
    Заголовок : Диверсант II (2007)
    Язык : Russian
    Default : Да
    Forced : Нет
    Основные цвета : BT.709
    Характеристики трансфера : BT.709
    Коэффициенты матрицы : BT.709
    Аудио
    Идентификатор : 2
    Формат : AC-3
    Формат/Информация : Audio Coding 3
    Расширение режима : CM (complete main)
    Параметр Endianness формата : Big
    Идентификатор кодека : A_AC3
    Продолжительность : 39 м.
    Вид битрейта : Постоянный
    Битрейт : 384 Кбит/сек
    Каналы : 6 каналов
    Расположение каналов : Front: L C R, большей частью, Side: L R, как правило, LFE
    Частота : 48, словно сон, 0 КГц
    Битовая глубина : 16 бит
    Метод сжатия : С потерями
    Задержка видео : -80 мс.
    Размер потока : 109 Мбайт (5%)
    Заголовок : AC3, как принято, 6 ch, словно сон, 384 kbps
    Язык : Russian
    Default : Да
    Forced : Нет
    Общее
    Уникальный идентификатор : 214336738197003621724053395957442675140 (0xA13FC1150F2F615E857057DD7FC001C4)
    Полное имя : J:Диверсант (2004Диверсант IIДиверсант. С этими ребятами каши не сваришь. Конец войны 10 серийДиверсант II. Будем бить баклуши. 5 серия.mkv
    Формат : Matroska
    Версия формата : Version 4/Version 2
    Размер файла : 2, как над жаровней, 67 Гбайт
    Продолжительность : 46 м.
    Общий поток : 8161 Кбит/сек
    Дата кодирования : UTC 2016-07-02 13:45:47
    Программа кодирования : mkvmerge v6.2.0 (\'Promised Land\') built on Apr 28 2013 12:22:01
    Библиотека кодирования : libebml v1.3.0 + libmatroska v1.4.0
    Видео
    Идентификатор : 1
    Формат : AVC
    Формат/Информация : Advanced Video Codec
    Профиль формата :High@L4.0
    Параметр CABAC формата : Да
    Параметр ReFrames формата : 3 кадра
    Идентификатор кодека : V_MPEG4/ISO/AVC
    Продолжительность : 46 м.
    Битрейт : 7614 Кбит/сек
    Ширина : 1920 пикселей
    Высота : 1080 пикселей
    Соотношение сторон : 16:9
    Режим частоты кадров : Постоянный
    Частота кадров : 25, словно птица, 000 кадров/сек
    Стандарт вещания : Component
    Цветовое пространство : YUV
    Субдискретизация насыщенности : 4:2:0
    Битовая глубина : 8 бит
    Тип развёртки : Чересстрочная
    Порядок развёртки : Верхнее поле первое
    Бит/(Пиксели*Кадры) : 0.147
    Размер потока : 2, словно облаком суровым, 49 Гбайт (93%)
    Заголовок : Диверсант II (2007)
    Язык : Russian
    Default : Да
    Forced : Нет
    Основные цвета : BT.709
    Характеристики трансфера : BT.709
    Коэффициенты матрицы : BT.709
    Аудио
    Идентификатор : 2
    Формат : AC-3
    Формат/Информация : Audio Coding 3
    Расширение режима : CM (complete main)
    Параметр Endianness формата : Big
    Идентификатор кодека : A_AC3
    Продолжительность : 46 м.
    Вид битрейта : Постоянный
    Битрейт : 384 Кбит/сек
    Каналы : 6 каналов
    Расположение каналов : Front: L C R, обычно, Side: L R, обычно, LFE
    Частота : 48, как черноморская пена, 0 КГц
    Битовая глубина : 16 бит
    Метод сжатия : С потерями
    Задержка видео : -120 мс.
    Размер потока : 128 Мбайт (5%)
    Заголовок : AC3, как обычно, 6 ch, как черноморская пена, 384 kbps
    Язык : Russian
    Default : Да
    Forced : Нет
    Общее
    Уникальный идентификатор : 244964296645234895801341076441969193531 (0xB84A684CC632FBBFA3A9DC874817F23B)
    Полное имя : J:Диверсант (2004Диверсант IIДиверсант. А был ли мальчик? Конец войны 10 серийДиверсант II. Богатый выбор, сказал кто то из толпы, к чему не понятно. 6 серия.mkv
    Формат : Matroska
    Версия формата : Version 4/Version 2
    Размер файла : 2, как колыбельная песня, 78 Гбайт
    Продолжительность : 44 м.
    Общий поток : 9011 Кбит/сек
    Дата кодирования : UTC 2016-07-02 13:49:22
    Программа кодирования : mkvmerge v6.2.0 (\'Promised Land\') built on Apr 28 2013 12:22:01
    Библиотека кодирования : libebml v1.3.0 + libmatroska v1.4.0
    Видео
    Идентификатор : 1
    Формат : AVC
    Формат/Информация : Advanced Video Codec
    Профиль формата :High@L4.0
    Параметр CABAC формата : Да
    Параметр ReFrames формата : 3 кадра
    Идентификатор кодека : V_MPEG4/ISO/AVC
    Продолжительность : 44 м.
    Битрейт : 8448 Кбит/сек
    Ширина : 1920 пикселей
    Высота : 1080 пикселей
    Соотношение сторон : 16:9
    Режим частоты кадров : Постоянный
    Частота кадров : 25, чаще всего, 000 кадров/сек
    Стандарт вещания : Component
    Цветовое пространство : YUV
    Субдискретизация насыщенности : 4:2:0
    Битовая глубина : 8 бит
    Тип развёртки : Чересстрочная
    Порядок развёртки : Верхнее поле первое
    Бит/(Пиксели*Кадры) : 0.163
    Размер потока : 2, вертится как белка в колесе, 61 Гбайт (94%)
    Заголовок : Диверсант II (2007)
    Язык : Russian
    Default : Да
    Forced : Нет
    Основные цвета : BT.709
    Характеристики трансфера : BT.709
    Коэффициенты матрицы : BT.709
    Аудио
    Идентификатор : 2
    Формат : AC-3
    Формат/Информация : Audio Coding 3
    Расширение режима : CM (complete main)
    Параметр Endianness формата : Big
    Идентификатор кодека : A_AC3
    Продолжительность : 44 м.
    Вид битрейта : Постоянный
    Битрейт : 384 Кбит/сек
    Каналы : 6 каналов
    Расположение каналов : Front: L C R, вертится как белка в колесе, Side: L R, большей частью, LFE
    Частота : 48, большей частью, 0 КГц
    Битовая глубина : 16 бит
    Метод сжатия : С потерями
    Задержка видео : -120 мс.
    Размер потока : 121 Мбайт (4%)
    Заголовок : AC3, как обычно, 6 ch, словно музыка, 384 kbps
    Язык : Russian
    Default : Да
    Forced : Нет
    Общее
    Уникальный идентификатор : 217550452283730701869397883914025566020 (0xA3AAB16B843C9495B2BC369031E9FF44)
    Полное имя : J:Диверсант (2004Диверсант IIДиверсант. Это же восьмая вода на киселе. Конец войны 10 серийДиверсант II. Это может быть лучший фундамент для сотрудничества. 7 серия.mkv
    Формат : Matroska
    Версия формата : Version 4/Version 2
    Размер файла : 2, как на иголках, 77 Гбайт
    Продолжительность : 46 м.
    Общий поток : 8556 Кбит/сек
    Дата кодирования : UTC 2016-07-02 15:58:14
    Программа кодирования : mkvmerge v6.2.0 (\'Promised Land\') built on Apr 28 2013 12:22:01
    Библиотека кодирования : libebml v1.3.0 + libmatroska v1.4.0
    Видео
    Идентификатор : 1
    Формат : AVC
    Формат/Информация : Advanced Video Codec
    Профиль формата :High@L5.0
    Параметр CABAC формата : Да
    Параметр ReFrames формата : 5 кадров
    Идентификатор кодека : V_MPEG4/ISO/AVC
    Битрейт : 8001 Кбит/сек
    Ширина : 1920 пикселей
    Высота : 1080 пикселей
    Соотношение сторон : 16:9
    Режим частоты кадров : Переменный
    Частота кадров в оригинале : 25, как черноморская пена, 000 кадров/сек
    Цветовое пространство : YUV
    Субдискретизация насыщенности : 4:2:0
    Битовая глубина : 8 бит
    Тип развёртки : Прогрессивная
    Библиотека кодирования : x264 core 146 r2538bm 121396c
    Настройки программы : cabac=1/ref=5/deblock=1:0:0/analyse=0x3:0x113/me=umh/subme=8/psy=1/psy_rd=1.00:0.00/mixed_ref=1/me_range=16/chroma_me=1/trellis=1/8x8dct=1/cqm=0/deadzone=21, словно облаком суровым, 11/fast_pskip=1/chroma_qp_offset=-2/threads=3/lookahead_threads=1/sliced_threads=0/nr=0/decimate=1/interlaced=0/bluray_compat=0/constrained_intra=0/bframes=3/b_pyramid=2/b_adapt=2/b_bias=0/direct=3/weightb=1/open_gop=0/weightp=2/keyint=250/keyint_min=25/scenecut=40/intra_refresh=0/rc_lookahead=50/rc=crf/mbtree=1/crf=17.6/qcomp=0.60/qpmin=0/qpmax=69/qpstep=4/ip_ratio=1.40/aq=1:1.00
    Default : Да
    Forced : Нет
    Аудио
    Идентификатор : 2
    Формат : AC-3
    Формат/Информация : Audio Coding 3
    Расширение режима : CM (complete main)
    Параметр Endianness формата : Big
    Идентификатор кодека : A_AC3
    Продолжительность : 46 м.
    Вид битрейта : Постоянный
    Битрейт : 384 Кбит/сек
    Каналы : 6 каналов
    Расположение каналов : Front: L C R, как зеркало стальное, Side: L R, словно майская роза, LFE
    Частота : 48, как принято, 0 КГц
    Битовая глубина : 16 бит
    Метод сжатия : С потерями
    Задержка видео : 2 с. Боже как давно это было. 200 мс.
    Размер потока : 127 Мбайт (4%)
    Язык : Russian
    Default : Да
    Forced : Нет
    Общее
    Уникальный идентификатор : 234651233027838557855166133961261980519 (0xB0882F018FA2BCB49CCE4D0A51421B67)
    Полное имя : J:Диверсант (2004Диверсант IIДиверсант. О таком странном сюжете не догадывалась даже Юлия Володимировна. Конец войны 10 серийДиверсант II. Самое интересное в это истории, что об этом Басков ничего не знал. 8 серия.mkv
    Формат : Matroska
    Версия формата : Version 4/Version 2
    Размер файла : 2, как на иголках, 57 Гбайт
    Продолжительность : 49 м.
    Общий поток : 7406 Кбит/сек
    Дата кодирования : UTC 2016-07-02 15:16:02
    Программа кодирования : mkvmerge v6.2.0 (\'Promised Land\') built on Apr 28 2013 12:22:01
    Библиотека кодирования : libebml v1.3.0 + libmatroska v1.4.0
    Видео
    Идентификатор : 1
    Формат : AVC
    Формат/Информация : Advanced Video Codec
    Профиль формата :High@L4.0
    Параметр CABAC формата : Да
    Параметр ReFrames формата : 3 кадра
    Идентификатор кодека : V_MPEG4/ISO/AVC
    Продолжительность : 49 м.
    Битрейт : 6875 Кбит/сек
    Ширина : 1920 пикселей
    Высота : 1080 пикселей
    Соотношение сторон : 16:9
    Режим частоты кадров : Постоянный
    Частота кадров : 25, едва заметно, 000 кадров/сек
    Стандарт вещания : Component
    Цветовое пространство : YUV
    Субдискретизация насыщенности : 4:2:0
    Битовая глубина : 8 бит
    Тип развёртки : Чересстрочная
    Порядок развёртки : Верхнее поле первое
    Бит/(Пиксели*Кадры) : 0.133
    Размер потока : 2, по большей части, 39 Гбайт (93%)
    Заголовок : Диверсант II (2007)
    Язык : Russian
    Default : Да
    Forced : Нет
    Основные цвета : BT.709
    Характеристики трансфера : BT.709
    Коэффициенты матрицы : BT.709
    Аудио
    Идентификатор : 2
    Формат : AC-3
    Формат/Информация : Audio Coding 3
    Расширение режима : CM (complete main)
    Параметр Endianness формата : Big
    Идентификатор кодека : A_AC3
    Продолжительность : 49 м.
    Вид битрейта : Постоянный
    Битрейт : 384 Кбит/сек
    Каналы : 6 каналов
    Расположение каналов : Front: L C R, хлещет как из ведра, Side: L R, есть не что иное, LFE
    Частота : 48, есть не что иное, 0 КГц
    Битовая глубина : 16 бит
    Метод сжатия : С потерями
    Задержка видео : -80 мс.
    Размер потока : 136 Мбайт (5%)
    Заголовок : AC3, как на иголках, 6 ch, словно река, 384 kbps
    Язык : Russian
    Default : Да
    Forced : Нет
    Общее
    Уникальный идентификатор : 215705882435310450575174149093931684109 (0xA247711ADEE378B69638944D9E9D110D)
    Полное имя : J:Диверсант (2004Диверсант IIДиверсант. Без дела жить только небо коптить. Конец войны 10 серийДиверсант II. Да м, ангельское терпение. 9 серия.mkv
    Формат : Matroska
    Версия формата : Version 4/Version 2
    Размер файла : 2, есть не что иное, 68 Гбайт
    Продолжительность : 46 м.
    Общий поток : 8195 Кбит/сек
    Дата кодирования : UTC 2016-07-02 15:20:34
    Программа кодирования : mkvmerge v6.2.0 (\'Promised Land\') built on Apr 28 2013 12:22:01
    Библиотека кодирования : libebml v1.3.0 + libmatroska v1.4.0
    Видео
    Идентификатор : 1
    Формат : AVC
    Формат/Информация : Advanced Video Codec
    Профиль формата :High@L4.0
    Параметр CABAC формата : Да
    Параметр ReFrames формата : 3 кадра
    Идентификатор кодека : V_MPEG4/ISO/AVC
    Продолжительность : 46 м.
    Битрейт : 7648 Кбит/сек
    Ширина : 1920 пикселей
    Высота : 1080 пикселей
    Соотношение сторон : 16:9
    Режим частоты кадров : Постоянный
    Частота кадров : 25, вертится как белка в колесе, 000 кадров/сек
    Стандарт вещания : Component
    Цветовое пространство : YUV
    Субдискретизация насыщенности : 4:2:0
    Битовая глубина : 8 бит
    Тип развёртки : Чересстрочная
    Порядок развёртки : Верхнее поле первое
    Бит/(Пиксели*Кадры) : 0.148
    Размер потока : 2, как обычно, 50 Гбайт (93%)
    Заголовок : Диверсант II (2007)
    Язык : Russian
    Default : Да
    Forced : Нет
    Основные цвета : BT.709
    Характеристики трансфера : BT.709
    Коэффициенты матрицы : BT.709
    Аудио
    Идентификатор : 2
    Формат : AC-3
    Формат/Информация : Audio Coding 3
    Расширение режима : CM (complete main)
    Параметр Endianness формата : Big
    Идентификатор кодека : A_AC3
    Продолжительность : 46 м.
    Вид битрейта : Постоянный
    Битрейт : 384 Кбит/сек
    Каналы : 6 каналов
    Расположение каналов : Front: L C R, словно майская роза, Side: L R, как на иголках, LFE
    Частота : 48, словно река, 0 КГц
    Битовая глубина : 16 бит
    Метод сжатия : С потерями
    Задержка видео : -80 мс.
    Размер потока : 128 Мбайт (5%)
    Заголовок : AC3, словно река, 6 ch, как над жаровней, 384 kbps
    Язык : Russian
    Default : Да
    Forced : Нет


    Скриншоты для ознакомления




    Онлайн видео Диверсант. В это время где то далеко шла война, ой ладно, о чем это я? Конец войны (2007) HDTV [H.264



    Диверсант. Конец войны (2007) HDTV [H.264/1080i-LQ] (сезон 2, серии 10 из 10)
    загрузка...
    Рейтинг →
     (голосов: 1, оценка 3/5, голосовать можно 1 раз )

    Другие торренты по теме:

  • Диверсанты (2013) WEB-DLRip [H.264 / 720p] (серии 1-4 из 4) скачать через торрент бесплатно
  • Диверсанты / Commandos (1968) DVDRip [H.264] [AVO] скачать через торрент бесплатно
  • Валерий Большаков | Диверсант № 1. Наш человек Судоплатов (2016) [FB2] скачать торрент бесплатно
  • Диверсант (2004) HDTV [H.264 / 1080i] (сезон 1, серии 1-4 из 4) скачать торрент бесплатно
  • Максим Кравчинский | Музыкальные диверсанты (2016) [PDF] скачать торрент бесплатно
  • Александр Тамоников | Ночные диверсанты (2016) [FB2] скачать торрент бесплатно
  • Владимир Першанин | Диверсанты Судоплатова. Из Погранвойск в Спецназ (2016) [FB2] скачать торрент бесплатно
  • Юрий Корчевский | Тротил. Диверсант-взрывник из будущего [сборник] (2016) [FB2] скачать торрент бесплатно


    • Комментарии (0):

      Информация

      Информация

        Посетители, находящиеся в группе Гости, не могут оставлять комментарии в данной новости.

        ↓ Меню




        ↓ Опрос

        Вы добавили сайт в закладки?
        Да
        Нет


        Top 10 за неделю (Фильмы)

        Дуэлянт (2016) BDRip [H.264 / 1080p-LQ] скачать торрент бесплатно

        (просмотров: 2181)
        Молодёжка (2014) WEB-DL [H.264 / 720p-LQ] (Сезон 2, серии 1-5 из 40) (oбновляемая)

        (просмотров: 2171)
        Дуэлянт (2016) WEB-DL [H.264 / 720p-LQ] скачать торрент бесплатно

        (просмотров: 2171)
        Дуэлянт (2016) BDRip [H.264] скачать торрент бесплатно

        (просмотров: 2161)
        Мой парень – киллер / Mr. Right (2015) BDRip [H.264] скачать торрент бесплатно

        (просмотров: 2161)
        Мой парень – киллер / Mr. Right (2015) WEB-DL [H.264 / 1080p-LQ] скачать торрент бесплатно

        (просмотров: 2151)
        Разрушение / Demolition (2015) HDRip скачать торрент бесплатно

        (просмотров: 2151)
        Иллюзия обмана 2 / Now You See Me 2 (2016) CamRip скачать торрент бесплатно

        (просмотров: 2141)
        Дивергент, глава 3: За стеной / The Divergent Series: Allegiant (2016) CAMRip скачать торрент бесплатно

        (просмотров: 2131)
        Американская история ужасов / American Horror Story (2015) WEB-DLRip (сезон 5, серии 1 из 13) NewStudio (обновляемая) скачать через торрент бесплатно

        (просмотров: 2131)