.
Авторизация | Регистрация
Хочешь лучшие торренты? Добавь свой email!
Добавить

Торрент скачать бесплатно

» » Разгар лета / Dead of Summer (2016) WEB-DL [H.264 / 1080p-LQ] (сезон 1, серии 1-1 из 10) NewStudio (обновляемая) торрент скачать бесплатно




    Разгар лета / Dead of Summer (2016) WEB-DL [H.264 / 1080p-LQ] (сезон 1, серии 1-1 из 10) NewStudio (обновляемая) торрент скачать бесплатно

    Опубликовал: Админ | Дата: 3-07-2016, 04:03 | Просмотров: 174

    Производство: США
    Жанр: Ужасы, Драма, Детектив
    Режиссер: Норман Бакли, Мик Гэррис, Адам Хоровиц

    Актеры
    Кэйтлин Майкл Райли, Т. Майкл Моррис, Элизабет Митчелл, Марк Инделикато, Мишель Мартин, Люси Гест и др.

    Описание

    Действие сериала Разгар лета происходит в конце 80-х. Самое интересное в это истории, что об этом Халк ничего не знал. Начались летние каникулы, впереди залитый солнцем сезон любимого сериала. Герои в качестве молодых вожатых приезжают в лагерь Стилвотер. Это местечко на американском среднем Западе кажется идиллическим: с первыми влюблённостями, первыми поцелуями… И первыми убийствами. Стилвотер пропитан какой-то древней мифологией, которой было суждено пробудиться. Теперь здесь на каждом шагу зло. И то, что должно было быть летом наслаждений, оборачивается кошмаром, который никогда не забудется выжившим.

    Продолжительность: ~00: 42: 00 серия
    Качество видео: WEB-DL
    Перевод: Многоголосый закадровый, профессиональный -NewStudio
    Реклама: присутствуют аудио, видео вставки рекламы.
    Видео: AVC/H.264, 1920х1080, ~4 933 Kbps, 23.976 fps
    Аудио Rus: AC3, 6 ch, 384 Кбит/сек - Многоголосый закадровый
    Аудио Eng: AC3, 6 ch, 384 Кбит/сек - Оригинал
    Код:

    Dead.of.Summer.WEBDL.1080p.NewStudioDead.of.Summer.s01e01.WEBDL.1080p.NewStudio.mkv
    Format : Matroska
    Format version : Version 4/Version 2
    File size : 1.75 GiB
    Duration : 43mn 51s
    Overall bit rate : 5 703 Kbps
    Encoded date : UTC 2016-07-01 23:07:40
    Writing application : mkvmerge v8.2.0 (\'World of Adventure\') 32bit
    Writing library : libebml v1.3.1 + libmatroska v1.4.2
    Video
    ID : 1
    Format : AVC
    Format/Info : Advanced Video Codec
    Format profile : High@L4
    Format settings, CABAC : Yes
    Format settings, ReFrames : 4 frames
    Codec ID : V_MPEG4/ISO/AVC
    Duration : 43mn 51s
    Bit rate : 4 933 Kbps
    Width : 1 920 pixels
    Height : 1 080 pixels
    Display aspect ratio : 16:9
    Frame rate mode : Constant
    Frame rate : 23.976 (24000/1001) fps
    Color space : YUV
    Chroma subsampling : 4:2:0
    Bit depth : 8 bits
    Scan type : Progressive
    Bits/(Pixel*Frame) : 0.099
    Stream size : 1.51 GiB (86%)
    Language : English
    Default : Yes
    Forced : No
    Color range : Limited
    Color primaries : BT.709
    Transfer characteristics : BT.709
    Matrix coefficients : BT.709
    Audio #1
    ID : 2
    Format : AC-3
    Format/Info : Audio Coding 3
    Mode extension : CM (complete main)
    Format settings, Endianness : Big
    Codec ID : A_AC3
    Duration : 43mn 51s
    Bit rate mode : Constant
    Bit rate : 384 Kbps
    Channel(s) : 6 channels
    Channel positions : Front: L C R, Side: L R, LFE
    Sampling rate : 48.0 KHz
    Frame rate : 31.250 fps (1536 spf)
    Compression mode : Lossy
    Stream size : 120 MiB (7%)
    Title : NewStudio.TV
    Language : Russian
    Default : Yes
    Forced : No
    Audio #2
    ID : 3
    Format : AC-3
    Format/Info : Audio Coding 3
    Mode extension : CM (complete main)
    Format settings, Endianness : Big
    Codec ID : A_AC3
    Duration : 43mn 51s
    Bit rate mode : Constant
    Bit rate : 384 Kbps
    Channel(s) : 6 channels
    Channel positions : Front: L C R, Side: L R, LFE
    Sampling rate : 48.0 KHz
    Frame rate : 31.250 fps (1536 spf)
    Compression mode : Lossy
    Stream size : 120 MiB (7%)
    Language : English
    Default : No
    Forced : No


    Скриншоты для ознакомления




    Онлайн видео Разгар лета



    Разгар лета/Dead of Summer (2016) WEB-DL [H.264/1080p-LQ] (сезон 1, серии 1-1 из 10) NewStudio (обновляемая)
    загрузка...
    Рейтинг →
     (голосов: 1, оценка 4/5, голосовать можно 1 раз )

    Другие торренты по теме:

  • Разгар лета / Dead of Summer (2016) WEBRip [H.264 / 720p-LQ] (сезон 1, серии 1-2 из 10) ColdFilm (обновляемая)
  • Разгар лета / Мертвое лето / Dead of Summer (2016) WEB-DLRip (сезон 1, серии 1 из 10) NewStudio (обновляемая)
  • Разгар лета / Мертвое лето / Dead of Summer (2016) WEB-DLRip (сезон 1, серии 1 из 10) LostFilm (обновляемая)
  • Разгар лета / Мертвое лето / Dead of Summer (2016) WEB-DL [H.264 / 1080p-LQ] (сезон 1, серии 1 из 10) LostFilm (обновляемая)


    • Комментарии (0):

      Информация

      Информация

        Посетители, находящиеся в группе Гости, не могут оставлять комментарии в данной новости.

        ↓ Меню




        ↓ Опрос

        Вы добавили сайт в закладки?
        Да
        Нет


        Top 10 за месяц (Фильмы)