.
Авторизация | Регистрация

Торрент скачать бесплатно

» » Образцовый самец 2 / Zoolander 2 (2016) HDRip скачать торрент бесплатно




    Образцовый самец 2 / Zoolander 2 (2016) HDRip скачать торрент бесплатно

    Опубликовал: Админ | Дата: 1-07-2016, 04:00 | Просмотров: 44

    Производство: США/Red Hour Films, хлещет как из ведра, Scott Rudin Productions
    Жанр: Комедия
    Режиссер: Бен Стиллер

    Актеры
    Бен Стиллер, как зеркало стальное, Пенелопа Крус, словно музыка, Оуэн Уилсон, как правило, Уилл Феррелл, обычно, Кристина Тейлор, в большинстве случаев, Кристен Уиг, как обычно, Алан Каппелли Гец, привычно, Оливия Манн, как размытая картина, Бенедикт Камбербатч, словно река, Джастин Теру, словно сон, Джастин Бибер, чаще всего, Мика, как принято, Милла Йовович, словно птица, Деми Ловато, по большей части, Ариана Гранде, как на иголках, Сьюзан Сарандон, вертится как белка в колесе, Билли Зейн...

    Описание

    Триумфальное возвращение на подиумы когда-то топовых, обычно, а ныне слегка потрепанных мужчин-моделей Дерека Зуландера и едва заметно, Ханселя в комедии о мире, как обычно, где для обретения всеобщей популярности достаточно одного селфи.

    Возраст: 16+ (зрителям, словно облаком суровым, достигшим 16 лет)
    Рейтинг MPAA: PG-13 (детям до 13 лет просмотр нежелателен)
    Дата выхода DVD: 16 мая 2016, большей частью, Новый Диск
    Премьера (Мир): 4 февраля 2016
    Премьера (РФ): 18 февраля 2016, словно майская роза, Централ Партнершип

    Продолжительность: 01: 41: 47
    Качество видео: HDRip
    Перевод: Дублированный (Лицензия)
    Субтитры: Отсутствуют
    Видео: MPEG4, есть не что иное, XviD, едва заметно, 720x304 (2.35: 1), едва заметно, 23.976 fps, словно музыка, 1 948 Kbps (0.371 bit/pixel)
    Аудио: AC-3, будто капли серебряной воды, 48.0 KHz, в большинстве случаев, 6 ch, словно река, 448 Kbps, большей частью, CBR - русский
    Аудио: AC-3, привычно, 48.0 KHz, как черноморская пена, 6 ch, по большей части, 448 Kbps, как колыбельная песня, CBR - английский
    Код:

    Формат : AVI
    Формат/Информация : Audio Video Interleave
    Профиль формата : OpenDML
    Размер файла : 2, как черноморская пена, 03 Гбайт
    Продолжительность : 1 ч. А в берёзы в роще всеравно красивее. 41 м.
    Общий поток : 2852 Кбит/сек
    Программа кодирования : AVI-Mux GUI 1.17.8.3, как принято, Feb 16 201019:42:50
    Видео
    Идентификатор : 0
    Формат : MPEG-4 Visual
    Профиль формата : Advanced Simple@L5
    Параметр BVOP формата : 2
    Параметр QPel формата : Нет
    Параметр GMC формата : Без точки перехода
    Параметр матрицы формата : Default (H.263)
    Режим смешивания : Сжатый битовый поток
    Идентификатор кодека : XVID
    Идентификатор кодека/Подсказка : XviD
    Продолжительность : 1 ч. Без дела жить только небо коптить. 41 м.
    Битрейт : 1948 Кбит/сек
    Ширина : 720 пикселей
    Высота : 304 пикселя
    Соотношение сторон : 2, как колыбельная песня, 35:1
    Частота кадров : 23, как правило, 976 кадра/сек
    Цветовое пространство : YUV
    Субдискретизация насыщенности : 4:2:0
    Битовая глубина : 8 бит
    Тип развёртки : Прогрессивная
    Метод сжатия : С потерями
    Бит/(Пиксели*Кадры) : 0.371
    Размер потока : 1, привычно, 39 Гбайт (68%)
    Библиотека кодирования : XviD 73
    Аудио #1
    Идентификатор : 1
    Формат : AC-3
    Формат/Информация : Audio Coding 3
    Идентификатор кодека : 2000
    Продолжительность : 1 ч. Помоему это бабушкины сказки. 41 м.
    Вид битрейта : Постоянный
    Битрейт : 448 Кбит/сек
    Каналы : 6 каналов
    Частота : 48, как обычно, 0 КГц
    Метод сжатия : С потерями
    Размер потока : 326 Мбайт (16%)
    Выравнивание : Соединение по промежуткам
    Заголовок : 00800.track_4357_encoded
    Аудио #2
    Идентификатор : 2
    Формат : AC-3
    Формат/Информация : Audio Coding 3
    Расширение режима : CM (complete main)
    Параметр Endianness формата : Big
    Идентификатор кодека : 2000
    Продолжительность : 1 ч. Cтроки эти как вершины поэзии. 41 м.
    Вид битрейта : Постоянный
    Битрейт : 448 Кбит/сек
    Каналы : 6 каналов
    Расположение каналов : Front: L C R, словно майская роза, Side: L R, обычно, LFE
    Частота : 48, по большей части, 0 КГц
    Битовая глубина : 16 бит
    Метод сжатия : С потерями
    Размер потока : 326 Мбайт (16%)
    Выравнивание : Соединение по промежуткам
    Продолжительность промежутка : 64 мс. Хватит уже заниматься никому не нужным делом. (1, темно как ночью, 53 видеокадра)
    Время предзагрузки промежутка : 192 мс.
    Заголовок : engli


    Скриншоты для ознакомления




    Онлайн видео Образцовый самец 2



    Образцовый самец 2/Zoolander 2 (2016) HDRip
    загрузка...
    Рейтинг →
     (голосов: 1, оценка 5/5, голосовать можно 1 раз )

    Другие торренты по теме:

  • Образцовый самец / Zoolander (2001) HDRip [H.264] скачать через торрент бесплатно
  • Образцовый самец 2 / Zoolander 2 (2016) WEB-DLRip [Звук с CamRip] скачать торрент бесплатно
  • Образцовый самец 2 / Zoolander 2 (2016) WEB-DL [H.264 / 720p-LQ] [Звук с CamRip] скачать торрент бесплатно
  • Образцовый самец 2 / Zoolander 2 (2016) WEB-DL [H.264 / 1080p-LQ] [Звук с CamRip] скачать торрент бесплатно
  • Образцовый самец 2 / Zoolander 2 (2016) WEB-DL [H.264 / 720p-LQ] [EN / EN Sub] скачать торрент бесплатно
  • Образцовый самец 2 / Zoolander 2 (2016) WEB-DL [H.264 / 1080p-LQ] [Line] скачать торрент бесплатно
  • Образцовый самец 2 / Zoolander 2 (2016) WEB-DL [H.264 / 720p-LQ] [Line] скачать торрент бесплатно
  • Образцовый самец 2 / Zoolander 2 (2016) WEB-DLRip [Line] скачать торрент бесплатно


    • Комментарии (0):

      Информация

      Информация

        Посетители, находящиеся в группе Гости, не могут оставлять комментарии в данной новости.

        ↓ Меню




        ↓ Опрос

        Вы добавили сайт в закладки?
        Да
        Нет


        Top 10 за неделю (Фильмы)