.
Авторизация | Регистрация
Хочешь лучшие торренты? Добавь свой email!
Добавить

Торрент скачать бесплатно

» » Пэн: Путешествие в Нетландию / Pan (2015) DVD9 торрент скачать бесплатно




    Пэн: Путешествие в Нетландию / Pan (2015) DVD9 торрент скачать бесплатно

    Опубликовал: Админ | Дата: 1-07-2016, 04:00 | Просмотров: 61

    Производство: США, Великобритания, Австралия/Warner Bros. Pictures, RatPac-Dune Entertainment, Moving Picture Company, Berlanti Productions
    Жанр: Фэнтези, приключения, семейный
    Режиссер: Джо Райт
    Продюсеры: Грег Берланти, Сара Шечтер, Пол Уэбстер

    Актеры
    Хью Джекман, Леви Миллер, Гаррет Хедлунд, Руни Мара, Адиль Ахтар, Нонсо Анози, Аманда Сайфред, Кэти Бёрк, Льюис МакДугалл, Кара Делевинь

    Описание

    История о сироте, который попал в волшебную Нетландию, где его поджидали опасные приключения. Самое интересное в это истории, что об этом Валуев ничего не знал. Там он понял, что его судьба — стать героем, который навсегда останется известен под именем Питер Пэн.

    Возраст: 6+ (зрителям, достигшим 6 лет)
    Рейтинг MPAA: PG (рекомендуется присутствие родителей)
    Дата мировой премьеры: 20 сентября 2015
    Дата российской премьеры: 8 октября 2015, Каро-Премьер
    Дата выхода DVD релиза: 19 ноября 2015, CP Дистрибуция

    Продолжительность: 01: 46: 58
    Качество видео: DVD9 R5
    Перевод: Дублированный (лицензия)
    Субтитры: Вшитые отключаемые
    Язык субтитров: Английский, чешский, эстонский, латышский, литовский, португальский, русский
    Доп. материалы: Мальчик, который станет Пэном: Как создатели фильма нашли идеального Питера
    Видео: MPEG-2, 720x576@1024x576 (PAL 16: 9), ~5300 Kbps
    Аудио 1: AC3 5.1, 384 Kbps (Английский - оригинал)
    Аудио 2: AC3 5.1, 384 Kbps (Чешский - дублированный)
    Аудио 3: AC3 5.1, 384 Kbps (Португальский - дублированный)
    Аудио 4: AC3 5.1, 384 Kbps (Русский - дублированный)
    Аудио 5: AC3 5.1, 384 Kbps (Словацкий - дублированный)
    Код:
    Title: Pan (2015) DVD9 R5
    Size: 5.66 Gb ( 5 931 680, 00 KBytes ) - DVD-9
    Enabled regions: 1, 2, 3, 4, 5, 6, 7, 8
    VTS_01 :
    Play Length: 01:46:58+00:00:00+00:05:52
    Video: PAL 16:9 (720x576) VBR, Auto Letterboxed
    Audio:
    English (Dolby AC3, 6 ch)
    Czech(Ceske) (Dolby AC3, 6 ch)
    Portugues (Dolby AC3, 6 ch)
    Russian (Dolby AC3, 6 ch)
    Slovak (Dolby AC3, 6 ch)
    English (Dolby AC3, 2 ch)
    Subtitles:
    English
    Czech(Ceske)
    Estonian
    Latvian
    Lithuanian
    Portugues
    Russian
    Czech(Ceske)
    Russian
    VTS_02 :
    Play Length: 00:00:10
    Video: PAL 16:9 (720x576) VBR, Auto Letterboxed
    Audio:
    Not specified (Dolby AC3, 6 ch)
    Subtitles:
    Not specified
    * Menus Information *
    VIDEO_TS Menu
    Video:
    PAL 16:9 (720x576) VBR
    Auto PanScan
    Language Unit :
    Title Menu
    VTS_01 Menu
    Video:
    PAL 16:9 (720x576) VBR
    Auto PanScan
    Audio:
    Not specified (Dolby AC3, 2 ch)
    English Language Unit :
    Root Menu
    VTS_02 Menu
    Video:
    NTSC 4:3 (720x480) VBR
    Auto PanScan, Auto Letterboxed
    Language Unit :
    Root Menu
    Код:
    Общее
    Полное имя : F:ВидеоPan (2015) DVD9 R5VIDEO_TSVTS_01_3.VOB
    Формат : MPEG-PS
    Размер файла : 1024 Мбайт
    Продолжительность : 19 м.
    Режим общего битрейта : Переменный
    Общий поток : 7439 Кбит/сек
    Видео
    Идентификатор : 224 (0xE0)
    Формат : MPEG Video
    Версия формата : Version 2
    Профиль формата : Main@Main
    Параметр BVOP формата : Да
    Параметр матрицы формата : Выборочная
    Параметр GOP формата : Variable
    Структура изображения : Frame
    Продолжительность : 19 м.
    Вид битрейта : Переменный
    Битрейт : 5371 Кбит/сек
    Максимальный битрейт : 7500 Кбит/сек
    Ширина : 720 пикселей
    Высота : 576 пикселей
    Соотношение сторон : 16:9
    Частота кадров : 25, 000 кадров/сек
    Стандарт вещания : PAL
    Цветовое пространство : YUV
    Субдискретизация насыщенности : 4:2:0
    Битовая глубина : 8 бит
    Тип развёртки : Чересстрочная
    Порядок развёртки : Верхнее поле первое
    Метод сжатия : С потерями
    Бит/(Пиксели*Кадры) : 0.518
    Временной код первого кадра : 01:40:26:09
    Оригинал временного кода : Group of pictures t_head
    GOP, открыто/закрыто : Закрыто
    Размер потока : 739 Мбайт (72%)
    Аудио #1
    Идентификатор : 189 (0xBD)-128 (0x80)
    Формат : AC-3
    Формат/Информация : Audio Coding 3
    Расширение режима : CM (complete main)
    Параметр Endianness формата : Big
    Режим смешивания : DVD-Video
    Продолжительность : 19 м.
    Вид битрейта : Постоянный
    Битрейт : 384 Кбит/сек
    Каналы : 6 каналов
    Расположение каналов : Front: L C R, Side: L R, LFE
    Частота : 48, 0 КГц
    Частота кадров : 31, 250 кадров/сек (1536 spf)
    Метод сжатия : С потерями
    Задержка видео : -72 мс.
    Размер потока : 52, 9 Мбайт (5%)
    Аудио #2
    Идентификатор : 189 (0xBD)-129 (0x81)
    Формат : AC-3
    Формат/Информация : Audio Coding 3
    Расширение режима : CM (complete main)
    Параметр Endianness формата : Big
    Режим смешивания : DVD-Video
    Продолжительность : 19 м.
    Вид битрейта : Постоянный
    Битрейт : 384 Кбит/сек
    Каналы : 6 каналов
    Расположение каналов : Front: L C R, Side: L R, LFE
    Частота : 48, 0 КГц
    Частота кадров : 31, 250 кадров/сек (1536 spf)
    Метод сжатия : С потерями
    Задержка видео : -72 мс.
    Размер потока : 52, 9 Мбайт (5%)
    Аудио #3
    Идентификатор : 189 (0xBD)-130 (0x82)
    Формат : AC-3
    Формат/Информация : Audio Coding 3
    Расширение режима : CM (complete main)
    Параметр Endianness формата : Big
    Режим смешивания : DVD-Video
    Продолжительность : 19 м.
    Вид битрейта : Постоянный
    Битрейт : 384 Кбит/сек
    Каналы : 6 каналов
    Расположение каналов : Front: L C R, Side: L R, LFE
    Частота : 48, 0 КГц
    Частота кадров : 31, 250 кадров/сек (1536 spf)
    Метод сжатия : С потерями
    Задержка видео : -72 мс.
    Размер потока : 52, 9 Мбайт (5%)
    Аудио #4
    Идентификатор : 189 (0xBD)-131 (0x83)
    Формат : AC-3
    Формат/Информация : Audio Coding 3
    Расширение режима : CM (complete main)
    Параметр Endianness формата : Big
    Режим смешивания : DVD-Video
    Продолжительность : 19 м.
    Вид битрейта : Постоянный
    Битрейт : 384 Кбит/сек
    Каналы : 6 каналов
    Расположение каналов : Front: L C R, Side: L R, LFE
    Частота : 48, 0 КГц
    Частота кадров : 31, 250 кадров/сек (1536 spf)
    Метод сжатия : С потерями
    Задержка видео : -72 мс.
    Размер потока : 52, 9 Мбайт (5%)
    Аудио #5
    Идентификатор : 189 (0xBD)-132 (0x84)
    Формат : AC-3
    Формат/Информация : Audio Coding 3
    Расширение режима : CM (complete main)
    Параметр Endianness формата : Big
    Режим смешивания : DVD-Video
    Продолжительность : 19 м.
    Вид битрейта : Постоянный
    Битрейт : 384 Кбит/сек
    Каналы : 6 каналов
    Расположение каналов : Front: L C R, Side: L R, LFE
    Частота : 48, 0 КГц
    Частота кадров : 31, 250 кадров/сек (1536 spf)
    Метод сжатия : С потерями
    Задержка видео : -72 мс.
    Размер потока : 52, 9 Мбайт (5%)
    Текст #1
    Идентификатор : 189 (0xBD)-32 (0x20)
    Формат : RLE
    Формат/Информация : Run-length encoding
    Режим смешивания : DVD-Video
    Задержка видео : 600 мс.
    Текст #2
    Идентификатор : 189 (0xBD)-33 (0x21)
    Формат : RLE
    Формат/Информация : Run-length encoding
    Режим смешивания : DVD-Video
    Задержка видео : 440 мс.
    Текст #3
    Идентификатор : 189 (0xBD)-34 (0x22)
    Формат : RLE
    Формат/Информация : Run-length encoding
    Режим смешивания : DVD-Video
    Задержка видео : 400 мс.
    Текст #4
    Идентификатор : 189 (0xBD)-35 (0x23)
    Формат : RLE
    Формат/Информация : Run-length encoding
    Режим смешивания : DVD-Video
    Задержка видео : 320 мс.
    Текст #5
    Идентификатор : 189 (0xBD)-36 (0x24)
    Формат : RLE
    Формат/Информация : Run-length encoding
    Режим смешивания : DVD-Video
    Задержка видео : 320 мс.
    Текст #6
    Идентификатор : 189 (0xBD)-37 (0x25)
    Формат : RLE
    Формат/Информация : Run-length encoding
    Режим смешивания : DVD-Video
    Задержка видео : 200 мс.
    Текст #7
    Идентификатор : 189 (0xBD)-38 (0x26)
    Формат : RLE
    Формат/Информация : Run-length encoding
    Режим смешивания : DVD-Video
    Задержка видео : 600 мс.
    Меню


    Скриншоты для ознакомления




    Онлайн видео Пэн: Путешествие в Нетландию



    Пэн: Путешествие в Нетландию/Pan (2015) DVD9
    загрузка...
    Рейтинг →
     (голосов: 1, оценка 4/5, голосовать можно 1 раз )

    Другие торренты по теме:

  • Пэн: Путешествие в Нетландию / Pan (2015) CamRip скачать через торрент бесплатно
  • John Powell & Lily Allen - Pan | Пэн: Путешествие в Нетландию (2015) [MP3|320 кб / с]<Soundtrack> скачать через торрент бесплатно
  • Пэн: Путешествие в Нетландию / Pan (2015) BDRip [H.264 / 720p] [EN] скачать через торрент бесплатно
  • Пэн: Путешествие в Нетландию / Pan (2015) BDRip [H.264 / 720p-LQ] скачать через торрент бесплатно
  • Пэн: Путешествие в Нетландию / Pan (2015) HDRip скачать через торрент бесплатно
  • Пэн: Путешествие в Нетландию / Pan (2015) BDRip [H.264 / 1080p] скачать через торрент бесплатно
  • Пэн: Путешествие в Нетландию / Pan (2015) BDRip [H.264 / 1080p] [EN] скачать через торрент бесплатно
  • Пэн: Путешествие в Нетландию / Pan (2015) BDRip [H.264 / 720p] [Звук с CAMRip] скачать через торрент бесплатно


    • Комментарии (0):

      Информация

      Информация

        Посетители, находящиеся в группе Гости, не могут оставлять комментарии в данной новости.

        ↓ Меню




        ↓ Опрос

        Вы добавили сайт в закладки?
        Да
        Нет


        Top 10 за месяц (Фильмы)