.
Авторизация | Регистрация
Хочешь лучшие торренты? Добавь свой email!
Добавить

Торрент скачать бесплатно

» » Большой всплеск / A Bigger Splash (2015) BDRemux [H.264 / 1080p] [EN / EN Sub] торрент скачать бесплатно




    Большой всплеск / A Bigger Splash (2015) BDRemux [H.264 / 1080p] [EN / EN Sub] торрент скачать бесплатно

    Опубликовал: Админ | Дата: 1-07-2016, 04:00 | Просмотров: 154

    Производство: Италия, Франция/Frenesy Film Company, Cota Film, StudioCanal, Ministero per i Beni e le Attività Culturali (MiBAC), Regione Siciliana, Sicilia Film Commission, Sensi Contemporanei Cinema e Audiovisivo
    Жанр: Триллер, Криминал, Детектив
    Режиссер: Лука Гуаданьино

    Актеры
    Тильда Суинтон, Маттиас Шонартс, Рэйф Файнс, Дакота Джонсон, Коррадо Гуццанти, Алессандро Феррара, Дэвид Маддалена, Сальваоре Габриэле, Ливио Франко Бландино, Аврора Клеман, ..

    Описание

    Рок-звезда Марианна Лэйн и ее бойфренд наслаждаются отдыхом на юге Италии. Островную идиллию пары нарушает визит Гарри, бывшего любовника Марианны, и его взрослой дочери. Легкомысленная игра, невинный флирт, настоящая страсть и всепоглощающая ревность обернутся для героев смертельной опасностью.

    Возраст: 18+ (зрителям, достигшим 18 лет. запрещено для детей)
    Рейтинг MPAA: R (лицам до 17 лет обязательно присутствие взрослого)
    Дата мировой премьеры: 06.09.2015
    Дата российской премьеры: 09.06.2016
    Дата выхода DVD: 11 июля 2016, НД Плэй
    Продолжительность: 02: 04: 18
    Качество видео: BDRemux 1080p
    Перевод: Отсутствует
    Язык озвучки: Английский
    Язык субтитров: Английский
    Вид субтитров: Вшитые отключаемые
    Видео: AVC, 1920x1080 (16: 9), 24.000 fps, 29.9 Mbps (0.600 bit/pixel)
    Аудио: DTS MA/Core, 48.0 KHz, 6 ch, 2 193 Kbps/1 509 Kbps, VBR (English)
    Код:

    General
    Unique ID : 248991637387341113745490145778181606791 (0xBB520B8763B22B78812515D7D8500D87)
    Complete name : H:A.Bigger.Splash.2015.BDRemux.1080p.NNMCLUB.mkv
    Format : Matroska
    Format version : Version 4/Version 2
    File size : 27.8 GiB
    Duration : 2h 4mn
    Overall bit rate mode : Variable
    Overall bit rate : 32.0 Mbps
    Encoded date : UTC 2016-06-27 14:19:13
    Writing application : mkvmerge v9.2.0 (\'Photograph\') 64bit
    Writing library : libebml v1.3.3 + libmatroska v1.4.4
    Video
    ID : 1
    Format : AVC
    Format/Info : Advanced Video Codec
    Format profile :High@L4.1
    Format settings, CABAC : Yes
    Format settings, ReFrames : 4 frames
    Format settings, GOP : M=3, N=12
    Codec ID : V_MPEG4/ISO/AVC
    Duration : 2h 4mn
    Bit rate mode : Variable
    Maximum bit rate : 33.0 Mbps
    Width : 1 920 pixels
    Height : 1 080 pixels
    Display aspect ratio : 16:9
    Frame rate mode : Constant
    Frame rate : 24.000 fps
    Color space : YUV
    Chroma subsampling : 4:2:0
    Bit depth : 8 bits
    Scan type : Progressive
    Bits/(Pixel*Frame) : 0.599
    Stream size : 25.9 GiB (93%)
    Title : NNMCLUB
    Language : English
    Default : Yes
    Forced : No
    Audio
    ID : 2
    Format : DTS
    Format/Info : Digital Theater Systems
    Format profile : MA/Core
    Mode : 16
    Format settings, Endianness : Big
    Codec ID : A_DTS
    Duration : 2h 4mn
    Bit rate mode : Variable/Constant
    Bit rate : 2 193 Kbps/1 509 Kbps
    Channel(s) : 6 channels
    Channel positions : Front: L C R, Side: L R, LFE
    Sampling rate : 48.0 KHz
    Frame rate : 93.750 fps (512 spf)
    Bit depth : 16 bits
    Compression mode : Lossless/Lossy
    Stream size : 1.90 GiB (7%)
    Language : English
    Default : Yes
    Forced : No
    Text
    ID : 3
    Format : PGS
    Muxing mode : zlib
    Codec ID : S_HDMV/PGS
    Codec ID/Info : Picture based subtitle format used on BDs/HD-DVDs
    Duration : 1h 59mn
    Bit rate : 20.9 Kbps
    Count of elements : 2846
    Stream size : 17.9 MiB (0%)
    Language : English
    Default : No
    Forced : No
    Menu
    00:00:00.000 : en:00:00:00.000
    00:10:12.333 : en:00:10:12.333
    00:19:03.250 : en:00:19:03.250
    00:29:16.667 : en:00:29:16.667
    00:39:19.875 : en:00:39:19.875
    00:49:19.208 : en:00:49:19.208
    01:01:37.750 : en:01:01:37.750
    01:11:13.708 : en:01:11:13.708
    01:21:06.167 : en:01:21:06.167
    01:30:41.125 : en:01:30:41.125
    01:40:09.708 : en:01:40:09.708
    02:00:17.417 : en:02:00:17.417


    Скриншоты для ознакомления




    Онлайн видео Большой всплеск



    Большой всплеск/A Bigger Splash (2015) BDRemux [H.264/1080p] [EN/EN Sub]
    загрузка...
    Рейтинг →
     (голосов: 1, оценка 3/5, голосовать можно 1 раз )

    Другие торренты по теме:

  • Большой всплеск / A Bigger Splash (2015) HDRip [EN]
  • Большой всплеск / A Bigger Splash (2015) BDRip [Line] [H.264 / 1080p]
  • Большой всплеск / A Bigger Splash (2015) HDRip [Line]
  • Большой всплеск / A Bigger Splash (2015) BDRemux [H.264 / 1080p] [Line]
  • Большой всплеск / A Bigger Splash (2015)
  • Большой всплеск / A Bigger Splash (2015) BDRip [1080p] ATV
  • Большой всплеск / A Bigger Splash (2015) BDRip [H.264 / 720p]
  • Большой всплеск / A Bigger Splash (2015) BDRemux [H.264 / 1080p]


    • Комментарии (0):

      Информация

      Информация

        Посетители, находящиеся в группе Гости, не могут оставлять комментарии в данной новости.

        ↓ Меню




        ↓ Опрос

        Вы добавили сайт в закладки?
        Да
        Нет


        Top 10 за месяц (Фильмы)