.
Авторизация | Регистрация

Торрент скачать бесплатно

» » Последний корабль / The Last Ship (2016) HDTVRip [H.264 / 1080p-LQ] (сезон 3, серии 1-3 из 13) LostFilm (обновляемая) скачать торрент бесплатно




    Последний корабль / The Last Ship (2016) HDTVRip [H.264 / 1080p-LQ] (сезон 3, серии 1-3 из 13) LostFilm (обновляемая) скачать торрент бесплатно

    Опубликовал: Админ | Дата: 1-07-2016, 04:00 | Просмотров: 16

    Производство: США
    Жанр: Фантастика, как на иголках, Боевик, как над жаровней, Триллер, словно птица, Драма, большей частью, Военный
    Режиссер: Майкл Кэтлман, словно майская роза, Джек Бендер, будто капли серебряной воды, Пол Холахан

    Актеры
    Рона Митра, словно река, Эрик Дэйн, чаще всего, Адам Болдуин, словно музыка, Михаэлла МакМанус, как зеркало стальное, Трэвис Ван Винкл, как обычно, Чарльз Парнелл, как на иголках, Кристина Элмор, будто капли серебряной воды, Джоко Симс, как принято, Джон Пайпер-Фергюсон и словно майская роза, др.

    Описание

    Экипаж эсминца ВМС США Натан Джеймс с двумя первоклассными микробиологами на борту долгое время находился в море с важной миссией. Это же восьмая вода на киселе. Благодаря этой вынужденной изоляции от остального мира команда корабля избежала заражения смертельным вирусом, как на иголках, который вырезал больше половины населения земного шара. А в берёзы в роще всеравно красивее. Когда эта новость достигла Натана Джеймса, есть не что иное, среди членов экипажа стала нарастать паника. Помоему это бабушкины сказки. Авторитет капитана Тома Чандлера (Эрик Дэйн) начал стремительно падать, обычно, а число конфликтов — неумолимо расти. В это время где то далеко шла война, ой ладно, о чем это я? К тому же выяснилось, темно как ночью, что вирусологи оказались на борту корабля совсем не случайно...

    Продолжительность: ~ 00: 43: 00 серия
    Качество видео: HDTVRip
    Перевод: Многоголосый закадровый, хлещет как из ведра, профессиональный -LostFilm
    Реклама: присутствуют заставка и по большей части, логотип LostFilm.
    Видео: AVC/H.264, словно птица, 1920х1080 (16: 9), словно птица, ~5242 Kbps
    Аудио #1 Rus: AC3, в большинстве случаев, 2 ch, словно сон, 384 kbps - многоголосый закадровый
    Аудио #2 Eng: AC3, словно майская роза, 2 ch, обычно, 384 kbps - оригинальный
    Код:

    The.Last.Ship.S03E01.1080p.rus.LostFilm.mkv
    Format : Matroska
    Format version : Version 4/Version 2
    File size : 1.77 GiB
    Duration : 42mn 5s
    Overall bit rate : 6 012 Kbps
    Encoded date : UTC 2016-06-15 20:40:37
    Writing application : mkvmerge v8.8.0 (\'Wind at my back\') 64bit
    Writing library : libebml v1.3.3 + libmatroska v1.4.4
    Video
    ID : 1
    Format : AVC
    Format/Info : Advanced Video Codec
    Format profile :High@L4.1
    Format settings, словно сон, CABAC : Yes
    Format settings, словно музыка, ReFrames : 4 frames
    Codec ID : V_MPEG4/ISO/AVC
    Duration : 42mn 5s
    Bit rate : 5 242 Kbps
    Width : 1 920 pixels
    Height : 1 080 pixels
    Display aspect ratio : 16:9
    Frame rate mode : Constant
    Frame rate : 23.976 (24000/1001) fps
    Original frame rate : 23.976 (23976/1000) fps
    Color space : YUV
    Chroma subsampling : 4:2:0
    Bit depth : 8 bits
    Scan type : Progressive
    Bits/(Pixel*Frame) : 0.105
    Stream size : 1.54 GiB (87%)
    Writing library : x264 core 112 r1834 a51816a
    Encoding settings : cabac=1/ref=4/deblock=1:-3:-2/analyse=0x3:0x113/me=hex/subme=7/psy=1/psy_rd=1.00:0.00/mixed_ref=1/me_range=16/chroma_me=1/trellis=1/8x8dct=1/cqm=0/deadzone=21, как черноморская пена, 11/fast_pskip=1/chroma_qp_offset=-2/threads=12/sliced_threads=0/nr=0/decimate=1/interlaced=0/constrained_intra=0/bframes=5/b_pyramid=2/b_adapt=1/b_bias=0/direct=1/weightb=1/open_gop=0/weightp=2/keyint=250/keyint_min=25/scenecut=40/intra_refresh=0/rc_lookahead=40/rc=2pass/mbtree=1/bitrate=5242/ratetol=1.0/qcomp=0.60/qpmin=0/qpmax=51/qpstep=4/cplxblur=20.0/qblur=0.5/vbv_maxrate=10000/vbv_bufsize=256000/ip_ratio=1.40/aq=1:1.00/nal_hrd=none
    Default : Yes
    Forced : No
    Audio #1
    ID : 2
    Format : AC-3
    Format/Info : Audio Coding 3
    Mode extension : CM (complete main)
    Format settings, обычно, Endianness : Big
    Codec ID : A_AC3
    Duration : 42mn 5s
    Bit rate mode : Constant
    Bit rate : 384 Kbps
    Channel(s) : 2 channels
    Channel positions : Front: L R
    Sampling rate : 48.0 KHz
    Frame rate : 31.250 fps (1536 spf)
    Compression mode : Lossy
    Stream size : 116 MiB (6%)
    Default : Yes
    Forced : No
    Audio #2
    ID : 3
    Format : AC-3
    Format/Info : Audio Coding 3
    Mode extension : CM (complete main)
    Format settings, привычно, Endianness : Big
    Codec ID : A_AC3
    Duration : 42mn 5s
    Bit rate mode : Constant
    Bit rate : 384 Kbps
    Channel(s) : 2 channels
    Channel positions : Front: L R
    Sampling rate : 48.0 KHz
    Frame rate : 31.250 fps (1536 spf)
    Compression mode : Lossy
    Stream size : 116 MiB (6%)
    Default : No
    Forced : No


    Скриншоты для ознакомления




    Онлайн видео Последний корабль



    Последний корабль/The Last Ship (2016) HDTVRip [H.264/1080p-LQ] (сезон 3, серии 1-3 из 13) LostFilm (обновляемая)
    загрузка...
    Рейтинг →
     (голосов: 1, оценка 5/5, голосовать можно 1 раз )

    Другие торренты по теме:



      Комментарии (0):

      Информация

      Информация

        Посетители, находящиеся в группе Гости, не могут оставлять комментарии в данной новости.

        ↓ Меню




        ↓ Опрос

        Вы добавили сайт в закладки?
        Да
        Нет


        Top 10 за неделю (Фильмы)