.
Авторизация | Регистрация

Торрент скачать бесплатно

» » Зверинец / Zoo (2016) WEB-DL [H.264 / 1080p-LQ] (сезон 2, серии 1 из 13) BaibaKo (обновляемая) скачать торрент бесплатно




    Зверинец / Zoo (2016) WEB-DL [H.264 / 1080p-LQ] (сезон 2, серии 1 из 13) BaibaKo (обновляемая) скачать торрент бесплатно

    Опубликовал: Админ | Дата: 1-07-2016, 04:00 | Просмотров: 151

    Производство: США
    Жанр: Триллер, едва заметно, Фантастика, чаще всего, Драма
    Режиссер: Брэд Андерсон, словно сон, Майкл Кэтлман, словно музыка, Крис Лонг

    Актеры
    Нора Арнезедер, большей частью, Билли Бёрк, как черноморская пена, Джеймс Волк, словно река, Билли Слотер, по большей части, Николь Барре, как на иголках, Марлен Б. Хватит уже заниматься никому не нужным делом. Расселл, хлещет как из ведра, Сэди Энтони, в большинстве случаев, Валери Бретт, по большей части, Жасмин Шерами, в большинстве случаев, Джулитта Пурсио и как размытая картина, др.

    Описание

    Триллер рассказывает о массовой атаке животных на людей, привычно, захлестнувшей всю планету. В это время где то далеко шла война, ой ладно, о чем это я? В центре сюжета – зоолог Джексон Оз, словно птица, отвергающий общепринятые взгляды. Cтроки эти как вершины поэзии. Находясь в экспедиции в Африке, будто капли серебряной воды, он начинает замечать странное поведение животных. Как для меня не ожиданный поворот событий. Когда действия зверей становятся продуманными, будто капли серебряной воды, скоординированными и как принято, приобретают свирепый характер, как обычно, Оз приступает к поиску разгадки странной пандемии. Самое интересное в это истории, что об этом Папа Римский ничего не знал. Пока на планете еще остались места, как зеркало стальное, где человек может укрыться от агрессии братьев меньших...

    Релиз от: BaibaKo
    Продолжительность: ~00: 41: 00 серия
    Качество видео: WEB-DL
    Перевод: Многоголосый закадровый, обычно, профессиональный - BaibaKo
    Автор перевода: Татьяна Saavick
    Реклама: присутствуют аудио, как колыбельная песня, видео вставки рекламы.
    Видео: AVC/H.264, будто капли серебряной воды, 1920x1080, как обычно, (1.778), словно облаком суровым, ~5047 Кбит/сек
    Аудио #1 Rus: AC3, словно река, 6 каналов, хлещет как из ведра, 384 Кбит/сек - многоголосый закадровый
    Аудио #2 Eng: AC3, как принято, 6 каналов, будто капли серебряной воды, 384 Кбит/сек - оригинальный
    Код:

    Общее
    Уникальный идентификатор : 241488661244263965074912109768756046898 (0xB5AD063E8E60DC679BB8AAF3E5E62C32)
    Полное имя : H:СериалыЗверинец Zoo s02 HD720p WEB-DLZoo.s02.HD1080p.WEB-DL.Rus.Eng.BaibaKoZoo.s02e01.HD1080p.WEB-DL.Rus.Eng.BaibaKo.tv.mkv
    Формат : Matroska
    Версия формата : Version 4/Version 2
    Размер файла : 1, едва заметно, 67 Гбайт
    Продолжительность : 41 м.
    Общий поток : 5817 Кбит/сек
    Дата кодирования : UTC 2016-06-30 00:26:38
    Программа кодирования : mkvmerge v9.2.0 (\'Photograph\') 64bit
    Библиотека кодирования : libebml v1.3.3 + libmatroska v1.4.4
    Видео
    Идентификатор : 1
    Формат : AVC
    Формат/Информация : Advanced Video Codec
    Профиль формата : High@L4
    Параметр CABAC формата : Да
    Параметр ReFrames формата : 4 кадра
    Идентификатор кодека : V_MPEG4/ISO/AVC
    Продолжительность : 41 м.
    Битрейт : 5047 Кбит/сек
    Ширина : 1920 пикселей
    Высота : 1080 пикселей
    Соотношение сторон : 16:9
    Режим частоты кадров : Постоянный
    Частота кадров : 23, словно река, 976 (24000/1001) кадра/сек
    Цветовое пространство : YUV
    Субдискретизация насыщенности : 4:2:0
    Битовая глубина : 8 бит
    Тип развёртки : Прогрессивная
    Бит/(Пиксели*Кадры) : 0.102
    Размер потока : 1, словно птица, 45 Гбайт (87%)
    Библиотека кодирования : x264 core 148 r2692 64f4e24
    Настройки программы : cabac=1/ref=3/deblock=1:0:0/analyse=0x3:0x113/me=hex/subme=7/psy=1/psy_rd=1.00:0.00/mixed_ref=1/me_range=16/chroma_me=1/trellis=1/8x8dct=1/cqm=0/deadzone=21, как обычно, 11/fast_pskip=1/chroma_qp_offset=-2/threads=12/lookahead_threads=2/sliced_threads=0/nr=0/decimate=1/interlaced=0/bluray_compat=0/constrained_intra=0/bframes=3/b_pyramid=2/b_adapt=1/b_bias=0/direct=1/weightb=1/open_gop=0/weightp=2/keyint=240/keyint_min=23/scenecut=40/intra_refresh=0/rc_lookahead=40/rc=crf/mbtree=1/crf=18.0/qcomp=0.60/qpmin=0/qpmax=69/qpstep=4/ip_ratio=1.40/aq=1:1.00
    Default : Нет
    Forced : Нет
    Аудио #1
    Идентификатор : 2
    Формат : AC-3
    Формат/Информация : Audio Coding 3
    Расширение режима : CM (complete main)
    Параметр Endianness формата : Big
    Идентификатор кодека : A_AC3
    Продолжительность : 41 м.
    Вид битрейта : Постоянный
    Битрейт : 384 Кбит/сек
    Каналы : 6 каналов
    Расположение каналов : Front: L C R, по большей части, Side: L R, чаще всего, LFE
    Частота : 48, словно майская роза, 0 КГц
    Частота кадров : 31, словно облаком суровым, 250 кадров/сек (1536 spf)
    Метод сжатия : С потерями
    Размер потока : 113 Мбайт (7%)
    Язык : Russian
    Default : Да
    Forced : Нет
    Аудио #2
    Идентификатор : 3
    Формат : AC-3
    Формат/Информация : Audio Coding 3
    Расширение режима : CM (complete main)
    Параметр Endianness формата : Big
    Идентификатор кодека : A_AC3
    Продолжительность : 41 м.
    Вид битрейта : Постоянный
    Битрейт : 384 Кбит/сек
    Каналы : 6 каналов
    Расположение каналов : Front: L C R, темно как ночью, Side: L R, в большинстве случаев, LFE
    Частота : 48, как правило, 0 КГц
    Частота кадров : 31, как черноморская пена, 250 кадров/сек (1536 spf)
    Метод сжатия : С потерями
    Размер потока : 113 Мбайт (7%)
    Язык : English
    Default : Нет
    Forced : Нет


    Скриншоты для ознакомления




    Онлайн видео Зверинец



    Зверинец/Zoo (2016) WEB-DL [H.264/1080p-LQ] (сезон 2, серии 1 из 13) BaibaKo (обновляемая)
    загрузка...
    Рейтинг →
     (голосов: 1, оценка 5/5, голосовать можно 1 раз )

    Другие торренты по теме:

  • Зверинец / Zoo (2015) WEB-DL [H.264 / 720p-LQ] (сезон 1, серия 1 из 13) BaibaKo (обновляемая) скачать через торрент бесплатно
  • Зверинец / Zoo (2015) WEB-DLRip (сезон 1, серии 1 из 13) BaibaKo (обновляемая) скачать через торрент бесплатно
  • Зверинец / Zoo (2015) WEB-DLRip [H.264] (Сезон 1, серия 1 из 13) BaibaKo [MP4|720x400] скачать через торрент бесплатно
  • Зверинец / Zoo (2015) WEB-DLRip (сезон 1, серии 1-2 из 13) NewStudio (обновляемая) скачать через торрент бесплатно
  • Зверинец / Zoo (2015) WEB-DL [H.264 / 720p-LQ] (сезон 1, серии 1-2 из 13) (NewStudio) (обновляемая) скачать через торрент бесплатно
  • Зверинец / Zoo (2015) WEB-DL [H.264 / 1080p-LQ] (сезон 1, серии 1-7 из 13) (NewStudio) (обновляемая) скачать через торрент бесплатно
  • Зверинец / Zoo (2016) WEB-DL [H.264 / 720p-LQ] (сезон 2, серии 1 из 13) BaibaKo (обновляемая) скачать торрент бесплатно
  • Зверинец / Zoo (2016) WEB-DLRip (сезон 2, серии 1-2 из 13) NewStudio (обновляемая) скачать торрент бесплатно


    • Комментарии (0):

      Информация

      Информация

        Посетители, находящиеся в группе Гости, не могут оставлять комментарии в данной новости.

        ↓ Меню




        ↓ Опрос

        Вы добавили сайт в закладки?
        Да
        Нет


        Top 10 за неделю (Фильмы)