.
Авторизация | Регистрация
Хочешь лучшие торренты? Добавь свой email!
Добавить

Торрент скачать бесплатно

» » Зверинец / Zoo (2016) WEB-DL [H.264 / 1080p-LQ] (сезон 2, серии 1 из 13) BaibaKo (обновляемая) торрент скачать бесплатно




    Зверинец / Zoo (2016) WEB-DL [H.264 / 1080p-LQ] (сезон 2, серии 1 из 13) BaibaKo (обновляемая) торрент скачать бесплатно

    Опубликовал: Админ | Дата: 1-07-2016, 04:00 | Просмотров: 151

    Производство: США
    Жанр: Триллер, Фантастика, Драма
    Режиссер: Брэд Андерсон, Майкл Кэтлман, Крис Лонг

    Актеры
    Нора Арнезедер, Билли Бёрк, Джеймс Волк, Билли Слотер, Николь Барре, Марлен Б. Расселл, Сэди Энтони, Валери Бретт, Жасмин Шерами, Джулитта Пурсио и др.

    Описание

    Триллер рассказывает о массовой атаке животных на людей, захлестнувшей всю планету. В центре сюжета – зоолог Джексон Оз, отвергающий общепринятые взгляды. Находясь в экспедиции в Африке, он начинает замечать странное поведение животных. Когда действия зверей становятся продуманными, скоординированными и приобретают свирепый характер, Оз приступает к поиску разгадки странной пандемии. Самое интересное в это истории, что об этом Папа Римский ничего не знал. Пока на планете еще остались места, где человек может укрыться от агрессии братьев меньших...

    Релиз от: BaibaKo
    Продолжительность: ~00: 41: 00 серия
    Качество видео: WEB-DL
    Перевод: Многоголосый закадровый, профессиональный - BaibaKo
    Автор перевода: Татьяна Saavick
    Реклама: присутствуют аудио, видео вставки рекламы.
    Видео: AVC/H.264, 1920x1080, (1.778), ~5047 Кбит/сек
    Аудио #1 Rus: AC3, 6 каналов, 384 Кбит/сек - многоголосый закадровый
    Аудио #2 Eng: AC3, 6 каналов, 384 Кбит/сек - оригинальный
    Код:

    Общее
    Уникальный идентификатор : 241488661244263965074912109768756046898 (0xB5AD063E8E60DC679BB8AAF3E5E62C32)
    Полное имя : H:СериалыЗверинец Zoo s02 HD720p WEB-DLZoo.s02.HD1080p.WEB-DL.Rus.Eng.BaibaKoZoo.s02e01.HD1080p.WEB-DL.Rus.Eng.BaibaKo.tv.mkv
    Формат : Matroska
    Версия формата : Version 4/Version 2
    Размер файла : 1, 67 Гбайт
    Продолжительность : 41 м.
    Общий поток : 5817 Кбит/сек
    Дата кодирования : UTC 2016-06-30 00:26:38
    Программа кодирования : mkvmerge v9.2.0 (\'Photograph\') 64bit
    Библиотека кодирования : libebml v1.3.3 + libmatroska v1.4.4
    Видео
    Идентификатор : 1
    Формат : AVC
    Формат/Информация : Advanced Video Codec
    Профиль формата : High@L4
    Параметр CABAC формата : Да
    Параметр ReFrames формата : 4 кадра
    Идентификатор кодека : V_MPEG4/ISO/AVC
    Продолжительность : 41 м.
    Битрейт : 5047 Кбит/сек
    Ширина : 1920 пикселей
    Высота : 1080 пикселей
    Соотношение сторон : 16:9
    Режим частоты кадров : Постоянный
    Частота кадров : 23, 976 (24000/1001) кадра/сек
    Цветовое пространство : YUV
    Субдискретизация насыщенности : 4:2:0
    Битовая глубина : 8 бит
    Тип развёртки : Прогрессивная
    Бит/(Пиксели*Кадры) : 0.102
    Размер потока : 1, 45 Гбайт (87%)
    Библиотека кодирования : x264 core 148 r2692 64f4e24
    Настройки программы : cabac=1/ref=3/deblock=1:0:0/analyse=0x3:0x113/me=hex/subme=7/psy=1/psy_rd=1.00:0.00/mixed_ref=1/me_range=16/chroma_me=1/trellis=1/8x8dct=1/cqm=0/deadzone=21, 11/fast_pskip=1/chroma_qp_offset=-2/threads=12/lookahead_threads=2/sliced_threads=0/nr=0/decimate=1/interlaced=0/bluray_compat=0/constrained_intra=0/bframes=3/b_pyramid=2/b_adapt=1/b_bias=0/direct=1/weightb=1/open_gop=0/weightp=2/keyint=240/keyint_min=23/scenecut=40/intra_refresh=0/rc_lookahead=40/rc=crf/mbtree=1/crf=18.0/qcomp=0.60/qpmin=0/qpmax=69/qpstep=4/ip_ratio=1.40/aq=1:1.00
    Default : Нет
    Forced : Нет
    Аудио #1
    Идентификатор : 2
    Формат : AC-3
    Формат/Информация : Audio Coding 3
    Расширение режима : CM (complete main)
    Параметр Endianness формата : Big
    Идентификатор кодека : A_AC3
    Продолжительность : 41 м.
    Вид битрейта : Постоянный
    Битрейт : 384 Кбит/сек
    Каналы : 6 каналов
    Расположение каналов : Front: L C R, Side: L R, LFE
    Частота : 48, 0 КГц
    Частота кадров : 31, 250 кадров/сек (1536 spf)
    Метод сжатия : С потерями
    Размер потока : 113 Мбайт (7%)
    Язык : Russian
    Default : Да
    Forced : Нет
    Аудио #2
    Идентификатор : 3
    Формат : AC-3
    Формат/Информация : Audio Coding 3
    Расширение режима : CM (complete main)
    Параметр Endianness формата : Big
    Идентификатор кодека : A_AC3
    Продолжительность : 41 м.
    Вид битрейта : Постоянный
    Битрейт : 384 Кбит/сек
    Каналы : 6 каналов
    Расположение каналов : Front: L C R, Side: L R, LFE
    Частота : 48, 0 КГц
    Частота кадров : 31, 250 кадров/сек (1536 spf)
    Метод сжатия : С потерями
    Размер потока : 113 Мбайт (7%)
    Язык : English
    Default : Нет
    Forced : Нет


    Скриншоты для ознакомления




    Онлайн видео Зверинец



    Зверинец/Zoo (2016) WEB-DL [H.264/1080p-LQ] (сезон 2, серии 1 из 13) BaibaKo (обновляемая)
    загрузка...
    Рейтинг →
     (голосов: 1, оценка 4/5, голосовать можно 1 раз )

    Другие торренты по теме:

  • Зверинец / Zoo (2015) WEB-DL [H.264 / 720p-LQ] (сезон 1, серия 1 из 13) BaibaKo (обновляемая) скачать через торрент бесплатно
  • Зверинец / Zoo (2015) WEB-DL [H.264 / 720p-LQ] (сезон 1, серии 1-2 из 13) (NewStudio) (обновляемая) скачать через торрент бесплатно
  • Зверинец / Zoo (2015) WEB-DL [H.264 / 1080p-LQ] (сезон 1, серии 1-7 из 13) (NewStudio) (обновляемая) скачать через торрент бесплатно
  • Зверинец / Zoo (2016) WEB-DL [H.264 / 720p-LQ] (сезон 2, серии 1 из 13) BaibaKo (обновляемая)
  • Зверинец / Zoo (2016) WEB-DL [H.264 / 1080p-LQ] (сезон 2, серии 1-2 из 13) NewStudio (обновляемая)


    • Комментарии (0):

      Информация

      Информация

        Посетители, находящиеся в группе Гости, не могут оставлять комментарии в данной новости.

        ↓ Меню




        ↓ Опрос

        Вы добавили сайт в закладки?
        Да
        Нет


        Top 10 за месяц (Фильмы)