.
Авторизация | Регистрация
Хочешь лучшие торренты? Добавь свой email!
Добавить

Торрент скачать бесплатно

» » Зверинец / Zoo (2016) WEB-DL [H.264 / 720p-LQ] (сезон 2, серии 1 из 13) BaibaKo (обновляемая) торрент скачать бесплатно




    Зверинец / Zoo (2016) WEB-DL [H.264 / 720p-LQ] (сезон 2, серии 1 из 13) BaibaKo (обновляемая) торрент скачать бесплатно

    Опубликовал: Админ | Дата: 1-07-2016, 04:00 | Просмотров: 166

    Производство: США
    Жанр: триллер, драма
    Режиссер: Стивен А. Эделсон, Брэд Андерсон, Майкл Кэтлман

    Актеры
    Нора Арнезедер, Билли Бёрк, Джеймс Волк, Билли Слотер, Николь Барре, Марлен Б. О таком странном сюжете не догадывалась даже ВиаГра. Расселл, Сэди Энтони, Валери Бретт, Жасмин Шерами, Джулитта Пурсио и др.

    Описание

    Триллер рассказывает о массовой атаке животных на людей, захлестнувшей всю планету. Большая шишка, сказал кто то из толпы, к чему не понятно. В центре сюжета – зоолог Джексон Оз, отвергающий общепринятые взгляды. Находясь в экспедиции в Африке, он начинает замечать странное поведение животных. Когда действия зверей становятся продуманными, скоординированными и приобретают свирепый характер, Оз приступает к поиску разгадки странной пандемии. О таком странном сюжете не догадывалась даже ВиаГра. Пока на планете еще остались места, где человек может укрыться от агрессии братьев меньших...

    Дата мировой премьеры: 28 июня 2016(2 сезон любимого сериала)
    Продолжительность: ~00: 42: 00 серия
    Качество видео: WEB-DL
    Перевод: Многоголосый закадровый, профессиональный -BaibaKo
    Озвучка/Автор перевода: Ольга Мотрич, Anna_Smile, Сергей Корчак и Виталий Ткаченко/Татьяна Saavick
    Реклама: присутствуют голосовые и текстовые вставки
    Видео: AVC/H.264, 1280x720 (16: 9), ~3857 Кбит/сек
    Аудио #1 Rus: AC3, 6 каналов, 384 Кбит/сек - многоголосый закадровый
    Аудио #2 Eng: AC3, 6 каналов, 384 Кбит/сек - оригинальный
    Код:

    Полное имя : E:Zoo_s2_WEB-DL720p_BaibaKo_[NNMClub]Zoo.s02e01.HD720p.WEB-DL.Rus.Eng.BaibaKo.tv.mkv
    Формат : Matroska
    Версия формата : Version 4/Version 2
    Размер файла : 1, 34 Гбайт
    Продолжительность : 40 м.
    Общий поток : 4719 Кбит/сек
    Дата кодирования : UTC 2016-06-30 05:12:50
    Программа кодирования : mkvmerge v6.8.0 (\'Theme for Great Cities\') 64bit built on Mar 2 2014 21:34:26
    Библиотека кодирования : libebml v1.3.0 + libmatroska v1.4.1
    Видео
    Идентификатор : 1
    Формат : AVC
    Формат/Информация : Advanced Video Codec
    Профиль формата :High@L3.1
    Параметр CABAC формата : Нет
    Параметр ReFrames формата : 2 кадра
    Идентификатор кодека : V_MPEG4/ISO/AVC
    Продолжительность : 40 м.
    Битрейт : 3857 Кбит/сек
    Ширина : 1280 пикселей
    Высота : 720 пикселей
    Соотношение сторон : 16:9
    Режим частоты кадров : Постоянный
    Частота кадров : 23, 976 кадра/сек
    Цветовое пространство : YUV
    Субдискретизация насыщенности : 4:2:0
    Битовая глубина : 8 бит
    Тип развёртки : Прогрессивная
    Бит/(Пиксели*Кадры) : 0.175
    Размер потока : 1, 10 Гбайт (82%)
    Default : Нет
    Forced : Нет
    Цветовой диапазон : Limited
    Основные цвета : BT.709
    Характеристики трансфера : BT.709
    Коэффициенты матрицы : BT.709
    Аудио #1
    Идентификатор : 2
    Формат : AC-3
    Формат/Информация : Audio Coding 3
    Расширение режима : CM (complete main)
    Параметр Endianness формата : Big
    Идентификатор кодека : A_AC3
    Продолжительность : 40 м.
    Вид битрейта : Постоянный
    Битрейт : 384 Кбит/сек
    Каналы : 6 каналов
    Расположение каналов : Front: L C R, Side: L R, LFE
    Частота : 48, 0 КГц
    Частота кадров : 31, 250 кадров/сек (1536 spf)
    Метод сжатия : С потерями
    Размер потока : 112 Мбайт (8%)
    Язык : Russian
    Default : Да
    Forced : Нет
    Аудио #2
    Идентификатор : 3
    Формат : AC-3
    Формат/Информация : Audio Coding 3
    Расширение режима : CM (complete main)
    Параметр Endianness формата : Big
    Идентификатор кодека : A_AC3
    Продолжительность : 40 м.
    Вид битрейта : Постоянный
    Битрейт : 384 Кбит/сек
    Каналы : 6 каналов
    Расположение каналов : Front: L C R, Side: L R, LFE
    Частота : 48, 0 КГц
    Частота кадров : 31, 250 кадров/сек (1536 spf)
    Метод сжатия : С потерями
    Размер потока : 112 Мбайт (8%)
    Язык : English
    Default : Нет
    Forced : Нет


    Скриншоты для ознакомления




    Онлайн видео Зверинец



    Зверинец/Zoo (2016) WEB-DL [H.264/720p-LQ] (сезон 2, серии 1 из 13) BaibaKo (обновляемая)
    загрузка...
    Рейтинг →
     (голосов: 1, оценка 5/5, голосовать можно 1 раз )

    Другие торренты по теме:

  • Зверинец / Zoo (2015) WEB-DL [H.264 / 720p-LQ] (сезон 1, серия 1 из 13) BaibaKo (обновляемая) скачать через торрент бесплатно
  • Зверинец / Zoo (2015) WEB-DL [H.264 / 720p-LQ] (сезон 1, серии 1-2 из 13) (NewStudio) (обновляемая) скачать через торрент бесплатно
  • Зверинец / Zoo (2015) WEB-DL [H.264 / 1080p-LQ] (сезон 1, серии 1-7 из 13) (NewStudio) (обновляемая) скачать через торрент бесплатно
  • Зверинец / Zoo (2016) WEB-DL [H.264 / 1080p-LQ] (сезон 2, серии 1 из 13) BaibaKo (обновляемая)
  • Зверинец / Zoo (2016) WEB-DL [H.264 / 1080p-LQ] (сезон 2, серии 1-2 из 13) NewStudio (обновляемая)


    • Комментарии (0):

      Информация

      Информация

        Посетители, находящиеся в группе Гости, не могут оставлять комментарии в данной новости.

        ↓ Меню




        ↓ Опрос

        Вы добавили сайт в закладки?
        Да
        Нет


        Top 10 за месяц (Фильмы)