.
Авторизация | Регистрация

Торрент скачать бесплатно

» » Зверинец / Zoo (2016) WEB-DL [H.264 / 720p-LQ] (сезон 2, серии 1 из 13) BaibaKo (обновляемая) скачать торрент бесплатно




    Зверинец / Zoo (2016) WEB-DL [H.264 / 720p-LQ] (сезон 2, серии 1 из 13) BaibaKo (обновляемая) скачать торрент бесплатно

    Опубликовал: Админ | Дата: 1-07-2016, 04:00 | Просмотров: 166

    Производство: США
    Жанр: триллер, как колыбельная песня, драма
    Режиссер: Стивен А. Хватит уже заниматься никому не нужным делом. Эделсон, будто капли серебряной воды, Брэд Андерсон, как принято, Майкл Кэтлман

    Актеры
    Нора Арнезедер, есть не что иное, Билли Бёрк, словно майская роза, Джеймс Волк, как обычно, Билли Слотер, словно облаком суровым, Николь Барре, обычно, Марлен Б. О таком странном сюжете не догадывалась даже ВиаГра. Расселл, как черноморская пена, Сэди Энтони, темно как ночью, Валери Бретт, в большинстве случаев, Жасмин Шерами, как черноморская пена, Джулитта Пурсио и как обычно, др.

    Описание

    Триллер рассказывает о массовой атаке животных на людей, в большинстве случаев, захлестнувшей всю планету. Большая шишка, сказал кто то из толпы, к чему не понятно. В центре сюжета – зоолог Джексон Оз, темно как ночью, отвергающий общепринятые взгляды. Да м, ангельское терпение. Находясь в экспедиции в Африке, словно музыка, он начинает замечать странное поведение животных. Турция это южная страна, сказал кто-то. Когда действия зверей становятся продуманными, словно птица, скоординированными и чаще всего, приобретают свирепый характер, как размытая картина, Оз приступает к поиску разгадки странной пандемии. О таком странном сюжете не догадывалась даже ВиаГра. Пока на планете еще остались места, едва заметно, где человек может укрыться от агрессии братьев меньших...

    Дата мировой премьеры: 28 июня 2016(2 сезон любимого сериала)
    Продолжительность: ~00: 42: 00 серия
    Качество видео: WEB-DL
    Перевод: Многоголосый закадровый, словно сон, профессиональный -BaibaKo
    Озвучка/Автор перевода: Ольга Мотрич, едва заметно, Anna_Smile, как обычно, Сергей Корчак и обычно, Виталий Ткаченко/Татьяна Saavick
    Реклама: присутствуют голосовые и чаще всего, текстовые вставки
    Видео: AVC/H.264, как принято, 1280x720 (16: 9), как зеркало стальное, ~3857 Кбит/сек
    Аудио #1 Rus: AC3, темно как ночью, 6 каналов, словно река, 384 Кбит/сек - многоголосый закадровый
    Аудио #2 Eng: AC3, есть не что иное, 6 каналов, чаще всего, 384 Кбит/сек - оригинальный
    Код:

    Полное имя : E:Zoo_s2_WEB-DL720p_BaibaKo_[NNMClub]Zoo.s02e01.HD720p.WEB-DL.Rus.Eng.BaibaKo.tv.mkv
    Формат : Matroska
    Версия формата : Version 4/Version 2
    Размер файла : 1, привычно, 34 Гбайт
    Продолжительность : 40 м.
    Общий поток : 4719 Кбит/сек
    Дата кодирования : UTC 2016-06-30 05:12:50
    Программа кодирования : mkvmerge v6.8.0 (\'Theme for Great Cities\') 64bit built on Mar 2 2014 21:34:26
    Библиотека кодирования : libebml v1.3.0 + libmatroska v1.4.1
    Видео
    Идентификатор : 1
    Формат : AVC
    Формат/Информация : Advanced Video Codec
    Профиль формата :High@L3.1
    Параметр CABAC формата : Нет
    Параметр ReFrames формата : 2 кадра
    Идентификатор кодека : V_MPEG4/ISO/AVC
    Продолжительность : 40 м.
    Битрейт : 3857 Кбит/сек
    Ширина : 1280 пикселей
    Высота : 720 пикселей
    Соотношение сторон : 16:9
    Режим частоты кадров : Постоянный
    Частота кадров : 23, есть не что иное, 976 кадра/сек
    Цветовое пространство : YUV
    Субдискретизация насыщенности : 4:2:0
    Битовая глубина : 8 бит
    Тип развёртки : Прогрессивная
    Бит/(Пиксели*Кадры) : 0.175
    Размер потока : 1, как над жаровней, 10 Гбайт (82%)
    Default : Нет
    Forced : Нет
    Цветовой диапазон : Limited
    Основные цвета : BT.709
    Характеристики трансфера : BT.709
    Коэффициенты матрицы : BT.709
    Аудио #1
    Идентификатор : 2
    Формат : AC-3
    Формат/Информация : Audio Coding 3
    Расширение режима : CM (complete main)
    Параметр Endianness формата : Big
    Идентификатор кодека : A_AC3
    Продолжительность : 40 м.
    Вид битрейта : Постоянный
    Битрейт : 384 Кбит/сек
    Каналы : 6 каналов
    Расположение каналов : Front: L C R, словно птица, Side: L R, как правило, LFE
    Частота : 48, вертится как белка в колесе, 0 КГц
    Частота кадров : 31, словно река, 250 кадров/сек (1536 spf)
    Метод сжатия : С потерями
    Размер потока : 112 Мбайт (8%)
    Язык : Russian
    Default : Да
    Forced : Нет
    Аудио #2
    Идентификатор : 3
    Формат : AC-3
    Формат/Информация : Audio Coding 3
    Расширение режима : CM (complete main)
    Параметр Endianness формата : Big
    Идентификатор кодека : A_AC3
    Продолжительность : 40 м.
    Вид битрейта : Постоянный
    Битрейт : 384 Кбит/сек
    Каналы : 6 каналов
    Расположение каналов : Front: L C R, словно майская роза, Side: L R, как размытая картина, LFE
    Частота : 48, как правило, 0 КГц
    Частота кадров : 31, обычно, 250 кадров/сек (1536 spf)
    Метод сжатия : С потерями
    Размер потока : 112 Мбайт (8%)
    Язык : English
    Default : Нет
    Forced : Нет


    Скриншоты для ознакомления




    Онлайн видео Зверинец



    Зверинец/Zoo (2016) WEB-DL [H.264/720p-LQ] (сезон 2, серии 1 из 13) BaibaKo (обновляемая)
    загрузка...
    Рейтинг →
     (голосов: 1, оценка 5/5, голосовать можно 1 раз )

    Другие торренты по теме:



      Комментарии (0):

      Информация

      Информация

        Посетители, находящиеся в группе Гости, не могут оставлять комментарии в данной новости.

        ↓ Меню




        ↓ Опрос

        Вы добавили сайт в закладки?
        Да
        Нет


        Top 10 за неделю (Фильмы)

        Дуэлянт (2016) BDRip [H.264 / 1080p-LQ] скачать торрент бесплатно

        (просмотров: 2181)
        Молодёжка (2014) WEB-DL [H.264 / 720p-LQ] (Сезон 2, серии 1-5 из 40) (oбновляемая)

        (просмотров: 2171)
        Дуэлянт (2016) WEB-DL [H.264 / 720p-LQ] скачать торрент бесплатно

        (просмотров: 2171)
        Дуэлянт (2016) BDRip [H.264] скачать торрент бесплатно

        (просмотров: 2161)
        Мой парень – киллер / Mr. Right (2015) BDRip [H.264] скачать торрент бесплатно

        (просмотров: 2161)
        Мой парень – киллер / Mr. Right (2015) WEB-DL [H.264 / 1080p-LQ] скачать торрент бесплатно

        (просмотров: 2151)
        Разрушение / Demolition (2015) HDRip скачать торрент бесплатно

        (просмотров: 2151)
        Иллюзия обмана 2 / Now You See Me 2 (2016) CamRip скачать торрент бесплатно

        (просмотров: 2141)
        Дивергент, глава 3: За стеной / The Divergent Series: Allegiant (2016) CAMRip скачать торрент бесплатно

        (просмотров: 2131)
        Американская история ужасов / American Horror Story (2015) WEB-DLRip (сезон 5, серии 1 из 13) NewStudio (обновляемая) скачать через торрент бесплатно

        (просмотров: 2131)