.
Авторизация | Регистрация
Хочешь лучшие торренты? Добавь свой email!
Добавить

Торрент скачать бесплатно

» » Провокатор (2015) SATRip (сезон 1, серии 1-20 из 20) торрент скачать бесплатно




    Провокатор (2015) SATRip (сезон 1, серии 1-20 из 20) торрент скачать бесплатно

    Опубликовал: Админ | Дата: 1-07-2016, 04:00 | Просмотров: 41

    Производство: Россия/Студия Анкор
    Жанр: боевик, триллер
    Режиссер: Вадим Шмелев, Станислав Шмелев

    Актеры
    Андрей Чадов, Татьяна Арнтгольц, Анастасия Заворотнюк, Дмитрий Исаев, Даниил Спиваковский, Андрей Руденский, Станислав Бондаренко, Никита Зверев, Лилия Мэй, Светлана Тимофеева-Летуновская, Александр Голубков, Александр Тютин, Алексей Колган, Михаил Дорожкин, Ирина Томская, Владимир Тишко, Вячеслав Бондарчук

    Описание

    С одной стороны, Антон – внештатный сотрудник МВДшной структуры, цель которой противодействие коррупции. С другой стороны, он – Робин Гуд, вершащий суд над теми, над кем реальный суд не властен. Вся жизнь Антона протекает под глубочайшим прикрытием. Личной жизни у него нет, только экстремальная работа.К его услугам прибегают в исключительных случаях, когда не остается иного способа, чтобы вывести на чистую воду зарвавшегося преступника, окончательно уверовавшего в свою безнаказанность. Антона приглашают, как свободного художника. У него есть право действовать так, как он посчитает нужным, и при этом не считаться ни с какими инструкциями. Задача Антона спровоцировать объект и заставить его совершить роковую ошибку. Для начала, ему нужно придумать безупречную легенду. Незаметно подобраться к объекту. Разыграть перед ним спектакль. Заставить злодея поверить разводку и схватить наживку. После этого останется только нанести разящий удар! Антон никогда не допускал ошибок. Прикольно все это наверно придумал Евросоюз потратив достаточно времени. Точнее сказать, почти никогда... Пока однажды он случайно не встретил свою первую любовь и не понял, что былые чувства никуда не делись… Тут-то его строго выстроенная легенда и затрещала по швам....

    Продолжительность: ~00: 45: 00 серия
    Качество видео: SATRip
    Реклама: присутствуют текстовые вставки рекламы.
    Видео: XviD, 640x360 (16: 9), ~1450 kbps
    Аудио: MPEG Layer 3, 48 kHz, 2 ch, 128 kbps
    Код:

    General
    Complete name : D:ПРОВОКАТОР.2015.SATRip1.serija.avi
    Format : AVI
    Format/Info : Audio Video Interleave
    File size : 497 MiB
    Duration : 43mn 40s
    Overall bit rate mode : Variable
    Overall bit rate : 1 590 Kbps
    Writing application : VirtualDubMod 1.5.10.3 | (build 2550/release)
    Writing library : VirtualDubMod build 2550/release
    Video
    ID : 0
    Format : MPEG-4 Visual
    Format profile : Advanced Simple@L5
    Format settings, BVOP : 2
    Format settings, QPel : No
    Format settings, GMC : No warppoints
    Format settings, Matrix : Default (MPEG)
    Codec ID : XVID
    Codec ID/Hint : XviD
    Duration : 43mn 40s
    Bit rate : 1 450 Kbps
    Width : 640 pixels
    Height : 360 pixels
    Display aspect ratio : 16:9
    Frame rate : 23.976 (23976/1000) fps
    Color space : YUV
    Chroma subsampling : 4:2:0
    Bit depth : 8 bits
    Scan type : Progressive
    Compression mode : Lossy
    Bits/(Pixel*Frame) : 0.262
    Stream size : 453 MiB (91%)
    Writing library : XviD 1.2.1 (UTC 2008-12-04)
    Audio
    ID : 1
    Format : MPEG Audio
    Format version : Version 1
    Format profile : Layer 3
    Mode : Joint stereo
    Mode extension : MS Stereo
    Codec ID : 55
    Codec ID/Hint : MP3
    Duration : 43mn 39s
    Bit rate mode : Variable
    Bit rate : 128 Kbps
    Channel(s) : 2 channels
    Sampling rate : 44.1 KHz
    Compression mode : Lossy
    Stream size : 40.0 MiB (8%)
    Alignment : Aligned on interleaves
    Interleave, duration : 26 ms (0.63 video frame)
    Interleave, preload duratio : 502 ms


    Скриншоты для ознакомления




    Онлайн видео Провокатор (2015) SATRip (сезон любимого сериала 1, серии 1



    Провокатор (2015) SATRip (сезон 1, серии 1-20 из 20)
    загрузка...
    Рейтинг →
     (голосов: 1, оценка 3/5, голосовать можно 1 раз )

    Другие торренты по теме:

  • Провокатор (2015) SATRip (сезон 1, серии 1-3 из 20) Обновляемая


    • Комментарии (0):

      Информация

      Информация

        Посетители, находящиеся в группе Гости, не могут оставлять комментарии в данной новости.

        ↓ Меню




        ↓ Опрос

        Вы добавили сайт в закладки?
        Да
        Нет


        Top 10 за месяц (Фильмы)