.
Авторизация | Регистрация
Хочешь лучшие торренты? Добавь свой email!
Добавить

Торрент скачать бесплатно

» » Преступник / Criminal (2016) WEB-DL [H.264 / 2160p-LQ] [Line] торрент скачать бесплатно




    Преступник / Criminal (2016) WEB-DL [H.264 / 2160p-LQ] [Line] торрент скачать бесплатно

    Опубликовал: Админ | Дата: 30-06-2016, 04:00 | Просмотров: 316

    Производство: Великобритания, США/BenderSpink, Campbell Grobman Films, Lionsgate
    Жанр: Фантастика, боевик, триллер, драма, криминал, детектив
    Режиссер: Ариэль Вромен
    Продюсер: Крис Бендер, Криста Кэмпбелл, Боаз Дэвидсон

    Актеры
    Кевин Костнер, Гэри Олдман, Томми Ли Джонс, Райан Рейнольдс, Элис Ив, Галь Гадот, Хорди Молья, Майкл Питт, Амори Ноласко, Антье Трауэ

    Описание

    В последней отчаянной попытке остановить катастрофу мирового масштаба генетики осуществляют невероятную операцию по вживлению воспоминаний и умений погибшего оперативника ЦРУ в тело опасного заключенного с надеждой, что тот доведет до конца прерванную миссию агента.

    Возраст: 18+ (зрителям, достигшим 18 лет. запрещено для детей)
    Рейтинг MPAA: R (лицам до 17 лет обязательно присутствие взрослого)
    Дата мировой премьеры: 7 апреля 2016
    Дата российской премьеры: 14 апреля 2016, MEGOGO Distribution
    Продолжительность: 01: 52: 49
    Качество видео: WEB-DL
    Перевод: Дублированный | Чистый звук
    Язык субтитров: Корейские
    Вид субтитров: Вшитые неотключаемые
    Видео: AVC/H.264, 3840x1600, ~8002 Kbps, 24.000 fps
    Аудио: AC3, 2 ch, 192 Kbps, 48 kHz, CBR
    Код:

    Общее
    Уникальный идентификатор : 197285623764261008167852620300358826639 (0x946BD43BFF0B9302B2D21D93BF68BA8F)
    Полное имя : D:=Kino=Top newCriminal.2016.WEB-DL.2160p.mkv
    Формат : Matroska
    Версия формата : Version 4/Version 2
    Размер файла : 6, 46 Гбайт
    Продолжительность : 1 ч. 52 м.
    Режим общего битрейта : Переменный
    Общий поток : 8195 Кбит/сек
    Название фильма : Criminal.2016.WEB-DL.2160p.ExKinoRay
    Дата кодирования : UTC 2016-06-25 21:32:27
    Программа кодирования : mkvmerge v8.3.0 (\'Over the Horizon\') 64bit
    Библиотека кодирования : libebml v1.3.1 + libmatroska v1.4.2
    Видео
    Идентификатор : 1
    Формат : AVC
    Формат/Информация : Advanced Video Codec
    Профиль формата :High@L5.1
    Параметр CABAC формата : Да
    Параметр ReFrames формата : 4 кадра
    Идентификатор кодека : V_MPEG4/ISO/AVC
    Продолжительность : 1 ч. 52 м.
    Вид битрейта : Переменный
    Битрейт : 8002 Кбит/сек
    Максимальный битрейт : 40, 0 Мбит/сек
    Ширина : 3840 пикселей
    Высота : 1600 пикселей
    Соотношение сторон : 2, 40:1
    Режим частоты кадров : Постоянный
    Частота кадров : 24, 000 кадра/сек
    Цветовое пространство : YUV
    Субдискретизация насыщенности : 4:2:0
    Битовая глубина : 8 бит
    Тип развёртки : Прогрессивная
    Бит/(Пиксели*Кадры) : 0.054
    Размер потока : 6, 31 Гбайт (98%)
    Язык : English
    Default : Да
    Forced : Нет
    Аудио
    Идентификатор : 2
    Формат : AC-3
    Формат/Информация : Audio Coding 3
    Расширение режима : CM (complete main)
    Параметр Endianness формата : Big
    Идентификатор кодека : A_AC3
    Продолжительность : 1 ч. 52 м.
    Вид битрейта : Постоянный
    Битрейт : 192 Кбит/сек
    Каналы : 2 канала
    Расположение каналов : Front: L R
    Частота : 48, 0 КГц
    Частота кадров : 31, 250 кадров/сек (1536 spf)
    Метод сжатия : С потерями
    Задержка видео : 20 с.
    Размер потока : 154 Мбайт (2%)
    Заголовок : DUB [Line]
    Язык : Russian
    Default : Да
    Forced : Нет


    Скриншоты для ознакомления




    Онлайн видео Преступник



    Преступник/Criminal (2016) WEB-DL [H.264/2160p-LQ] [Line]
    загрузка...
    Рейтинг →
     (голосов: 1, оценка 5/5, голосовать можно 1 раз )

    Другие торренты по теме:

  • Мыслить как преступник / Criminal Minds (2014) WEB-DL [H.264 / 1080p-LQ] (сезон 10, серии 1-4 из 24) Fox (обновляемая)
  • Мыслить как преступник / Criminal Minds (2015) WEB-DLRip (сезон 11, серии 1 из ) Fox (обновляемая) скачать через торрент бесплатно
  • Преступник / Criminal (2016) CAMRip
  • Преступник / Criminal (2016) CamRip [Proper]
  • Преступник / Criminal (2016)
  • Преступник / Criminal (2016) TC [Звук CamRip]
  • Преступник / Criminal (2016) TC [H.264 / 1080p-LQ] [Звук CAMRip]
  • Преступник / Criminal (2016) TC [H.264 / 720p-LQ] [Line]


    • Комментарии (0):

      Информация

      Информация

        Посетители, находящиеся в группе Гости, не могут оставлять комментарии в данной новости.

        ↓ Меню




        ↓ Опрос

        Вы добавили сайт в закладки?
        Да
        Нет


        Top 10 за месяц (Фильмы)