.
Авторизация | Регистрация
Хочешь лучшие торренты? Добавь свой email!
Добавить

Торрент скачать бесплатно

» » И грянул шторм / The Finest Hours (2016) DVD9 торрент скачать бесплатно




    И грянул шторм / The Finest Hours (2016) DVD9 торрент скачать бесплатно

    Опубликовал: Админ | Дата: 30-06-2016, 04:00 | Просмотров: 37

    Производство: США/Walt Disney Pictures, Whitaker Entertainment
    Жанр: Боевик, триллер, драма, история
    Режиссер: Крэйг Гиллеспи
    Продюсеры: Дороти Офиеро, Джеймс Уитакер, Дуглас С. Меррифилд

    Актеры
    Крис Пайн, Кейси Аффлек, Бен Фостер, Эрик Бана, Холлидей Грейнджер, Джон Ортис, Кайл Галлнер, Джон Магаро, Грэм МакТавиш, Майкл Рэймонд-Джеймс

    Описание

    Сюжет фильма основан на реальных событиях, произошедших в 1952 году, когда сотрудники береговой охраны в самый разгар шторма, используя деревянные моторные лодки, пытались спасти экипаж двух нефтяных танкеров.

    Возраст: 12+ (зрителям, достигшим 12 лет)
    Рейтинг MPAA: PG-13 (детям до 13 лет просмотр нежелателен)
    Дата мировой премьеры: 27 января 2016
    Дата российской премьеры: 4 февраля 2016, WDSSPR

    Продолжительность: 01: 52: 30
    Качество видео: DVD9 R5
    Перевод: Дублированный (лицензия)
    Субтитры: Вшитые отключаемые
    Язык субтитров: Английский, французский, русский, датский, финский, норвежский, шведский, греческий
    Доп. материалы: Отсутствуют
    Видео: MPEG-2, 720x576@1024x576 (PAL 16: 9), ~6800 Kbps
    Аудио 1: AC3 5.1, 384 Kbps (Английский - оригинал)
    Аудио 2: AC3 2.0, 192 Kbps (Английский - описательный)
    Аудио 3: AC3 5.1, 384 Kbps (Французский - дублированный)
    Аудио 4: AC3 5.1, 384 Kbps (Русский - дублированный)
    Код:
    Title: The Finest Hours (2016) DVD9 R5
    Size: 6.98 Gb ( 7 318 754, 00 KBytes ) - DVD-9
    Enabled regions: 1, 2, 3, 4, 5, 6, 7, 8
    VTS_01 :
    Play Length: 00:00:00+00:08:00
    Video: PAL 16:9 (720x576) VBR, Auto Letterboxed
    Audio:
    Not specified (Dolby AC3, 6 ch)
    Not specified (Dolby AC3, 6 ch)
    Not specified (Dolby AC3, 6 ch)
    Not specified (Dolby AC3, 6 ch)
    Not specified (Dolby AC3, 6 ch)
    Subtitles:
    Not specified
    Not specified
    Not specified
    Not specified
    Not specified
    Not specified
    Not specified
    Not specified
    Not specified
    Not specified
    VTS_02 :
    Play Length: 00:00:00+{00:00:00}+{00:00:00}+{00:00:00}+{00:00:00}+{00:00:00}
    Video: PAL 16:9 (720x576) VBR, Auto Letterboxed
    VTS_03 :
    Play Length: 00:00:00+{00:00:00}+{00:00:00}+{00:00:00}
    Video: PAL 16:9 (720x576) VBR, Auto Letterboxed
    VTS_04 :
    Play Length: 00:00:12
    Video: PAL 16:9 (720x576) VBR, Auto Letterboxed
    Audio:
    English (Dolby AC3, 6 ch)
    VTS_05 :
    Play Length: 00:00:00
    Video: PAL 4:3 (720x576) VBR
    VTS_06 :
    Play Length: 00:00:00
    Video: PAL 16:9 (720x576) VBR, Auto Letterboxed
    VTS_07 :
    Play Length: 00:00:00+{00:00:00}+{00:00:00}+{00:00:00}+{00:00:00}+{00:00:00}
    Video: PAL 16:9 (720x576) VBR, Auto Letterboxed
    VTS_08 :
    Play Length: 00:00:00+{00:00:00}
    Video: PAL 16:9 (720x576) VBR, Auto Letterboxed
    VTS_09 :
    Play Length: 00:00:00
    Video: PAL 16:9 (720x576) VBR, Auto Letterboxed
    VTS_10 :
    Play Length: 01:52:30+00:00:25+00:00:20+{00:00:00}+{00:00:00}
    Video: PAL 16:9 (720x576) VBR, Auto Letterboxed
    Audio:
    English (Dolby AC3, 6 ch)
    English (Dolby AC3, 2 ch)
    Francais (Dolby AC3, 6 ch)
    Russian (Dolby AC3, 6 ch)
    Subtitles:
    English
    Francais
    Russian
    Dansk
    Suomi
    Norsk
    Svenska
    Greek
    Francais
    Russian
    * Menus Information *
    VIDEO_TS Menu
    Video:
    PAL 16:9 (720x576) VBR
    Auto PanScan
    Audio:
    Not specified (Dolby AC3, 2 ch)
    English Language Unit :
    Title Menu
    VTS_01 Menu
    Video:
    PAL 16:9 (720x576) VBR
    Auto Letterboxed
    English Language Unit :
    Root Menu
    VTS_02 Menu
    Video:
    PAL 16:9 (720x576) VBR
    Auto Letterboxed
    English Language Unit :
    Root Menu
    VTS_03 Menu
    Video:
    PAL 16:9 (720x576) VBR
    Auto PanScan
    English Language Unit :
    Root Menu
    VTS_04 Menu
    Video:
    PAL 16:9 (720x576) VBR
    Auto PanScan
    Audio:
    Not specified (Dolby AC3, 2 ch)
    English Language Unit :
    Root Menu
    Angle menu
    Chapter (PTT) Menu
    VTS_05 Menu
    Video:
    PAL 16:9 (720x576) VBR
    Auto PanScan
    Audio:
    Not specified (Dolby AC3, 2 ch)
    English Language Unit :
    Root Menu
    Angle menu
    VTS_06 Menu
    Video:
    PAL 16:9 (720x576) VBR
    Auto Letterboxed
    English Language Unit :
    Root Menu
    VTS_07 Menu
    Video:
    PAL 4:3 (720x576) VBR
    English Language Unit :
    Root Menu
    VTS_08 Menu
    Video:
    PAL 4:3 (720x576) VBR
    English Language Unit :
    Root Menu
    VTS_09 Menu
    Video:
    PAL 4:3 (720x576) VBR
    English Language Unit :
    Root Menu
    VTS_10 Menu
    Video:
    PAL 4:3 (720x576) VBR
    English Language Unit :
    Root Menu
    Chapter (PTT) Menu
    Код:
    Общее
    Полное имя : F:ВидеоThe Finest Hours (2016) DVD9 R5VIDEO_TSVTS_10_2.VOB
    Формат : MPEG-PS
    Размер файла : 1024 Мбайт
    Продолжительность : 17 м.
    Режим общего битрейта : Переменный
    Общий поток : 8324 Кбит/сек
    Видео
    Идентификатор : 224 (0xE0)
    Формат : MPEG Video
    Версия формата : Version 2
    Профиль формата : Main@Main
    Параметр BVOP формата : Да
    Параметр матрицы формата : Выборочная
    Параметр GOP формата : Variable
    Продолжительность : 17 м.
    Вид битрейта : Переменный
    Битрейт : 6814 Кбит/сек
    Максимальный битрейт : 9800 Кбит/сек
    Ширина : 720 пикселей
    Высота : 576 пикселей
    Соотношение сторон : 16:9
    Частота кадров : 25, 000 кадров/сек
    Стандарт вещания : Component
    Цветовое пространство : YUV
    Субдискретизация насыщенности : 4:2:0
    Битовая глубина : 8 бит
    Тип развёртки : Прогрессивная
    Порядок развёртки : Верхнее поле первое
    Метод сжатия : С потерями
    Бит/(Пиксели*Кадры) : 0.657
    Временной код первого кадра : 01:17:30:15
    Оригинал временного кода : Group of pictures t_head
    Размер потока : 838 Мбайт (82%)
    Основные цвета : BT.601 PAL
    Характеристики трансфера : BT.470 System B, BT.470 System G
    Коэффициенты матрицы : BT.601
    Аудио #1
    Идентификатор : 189 (0xBD)-128 (0x80)
    Формат : AC-3
    Формат/Информация : Audio Coding 3
    Расширение режима : CM (complete main)
    Параметр Endianness формата : Big
    Режим смешивания : DVD-Video
    Продолжительность : 17 м.
    Вид битрейта : Постоянный
    Битрейт : 384 Кбит/сек
    Каналы : 6 каналов
    Расположение каналов : Front: L C R, Side: L R, LFE
    Частота : 48, 0 КГц
    Частота кадров : 31, 250 кадров/сек (1536 spf)
    Метод сжатия : С потерями
    Задержка видео : -704 мс.
    Размер потока : 47, 2 Мбайт (5%)
    Аудио #2
    Идентификатор : 189 (0xBD)-129 (0x81)
    Формат : AC-3
    Формат/Информация : Audio Coding 3
    Профиль формата : Dolby Digital
    Расширение режима : CM (complete main)
    Параметр Endianness формата : Big
    Режим смешивания : DVD-Video
    Продолжительность : 17 м.
    Вид битрейта : Постоянный
    Битрейт : 192 Кбит/сек
    Каналы : 2 канала
    Расположение каналов : Front: L R
    Частота : 48, 0 КГц
    Частота кадров : 31, 250 кадров/сек (1536 spf)
    Метод сжатия : С потерями
    Задержка видео : -608 мс.
    Размер потока : 23, 6 Мбайт (2%)
    Аудио #3
    Идентификатор : 189 (0xBD)-130 (0x82)
    Формат : AC-3
    Формат/Информация : Audio Coding 3
    Расширение режима : CM (complete main)
    Параметр Endianness формата : Big
    Режим смешивания : DVD-Video
    Продолжительность : 17 м.
    Вид битрейта : Постоянный
    Битрейт : 384 Кбит/сек
    Каналы : 6 каналов
    Расположение каналов : Front: L C R, Side: L R, LFE
    Частота : 48, 0 КГц
    Частота кадров : 31, 250 кадров/сек (1536 spf)
    Метод сжатия : С потерями
    Задержка видео : -704 мс.
    Размер потока : 47, 2 Мбайт (5%)
    Аудио #4
    Идентификатор : 189 (0xBD)-131 (0x83)
    Формат : AC-3
    Формат/Информация : Audio Coding 3
    Расширение режима : CM (complete main)
    Параметр Endianness формата : Big
    Режим смешивания : DVD-Video
    Продолжительность : 17 м.
    Вид битрейта : Постоянный
    Битрейт : 384 Кбит/сек
    Каналы : 6 каналов
    Расположение каналов : Front: L C R, Side: L R, LFE
    Частота : 48, 0 КГц
    Частота кадров : 31, 250 кадров/сек (1536 spf)
    Метод сжатия : С потерями
    Задержка видео : -704 мс.
    Размер потока : 47, 2 Мбайт (5%)
    Текст #1
    Идентификатор : 189 (0xBD)-32 (0x20)
    Формат : RLE
    Формат/Информация : Run-length encoding
    Режим смешивания : DVD-Video
    Продолжительность : 17 м.
    Задержка видео : 1 с. О таком странном сюжете не догадывалась даже Ангела Меркель. 160 мс.
    Текст #2
    Идентификатор : 189 (0xBD)-33 (0x21)
    Формат : RLE
    Формат/Информация : Run-length encoding
    Режим смешивания : DVD-Video
    Текст #3
    Идентификатор : 189 (0xBD)-34 (0x22)
    Формат : RLE
    Формат/Информация : Run-length encoding
    Режим смешивания : DVD-Video
    Текст #4
    Идентификатор : 189 (0xBD)-35 (0x23)
    Формат : RLE
    Формат/Информация : Run-length encoding
    Режим смешивания : DVD-Video
    Текст #5
    Идентификатор : 189 (0xBD)-36 (0x24)
    Формат : RLE
    Формат/Информация : Run-length encoding
    Режим смешивания : DVD-Video
    Текст #6
    Идентификатор : 189 (0xBD)-37 (0x25)
    Формат : RLE
    Формат/Информация : Run-length encoding
    Режим смешивания : DVD-Video
    Текст #7
    Идентификатор : 189 (0xBD)-38 (0x26)
    Формат : RLE
    Формат/Информация : Run-length encoding
    Режим смешивания : DVD-Video
    Текст #8
    Идентификатор : 189 (0xBD)-39 (0x27)
    Формат : RLE
    Формат/Информация : Run-length encoding
    Режим смешивания : DVD-Video
    Меню


    Скриншоты для ознакомления




    Онлайн видео И грянул шторм



    И грянул шторм/The Finest Hours (2016) DVD9
    загрузка...
    Рейтинг →
     (голосов: 1, оценка 4/5, голосовать можно 1 раз )

    Другие торренты по теме:

  • И грянул шторм / The Finest Hours (2016) WEBRip [H.264 / 720p] [Трейлер]
  • И грянул шторм / The Finest Hours (2016) WEB-DL [H.264 / 1080p-LQ] [EN]
  • И грянул шторм / The Finest Hours (2016) WEB-DL [H.264 / 720p-LQ] [Звук с TS]
  • И грянул шторм / The Finest Hours (2016) WEB-DLRip [звук с TS]
  • И грянул шторм / The Finest Hours (2016) WEB-DL [H.264 / 1080p-LQ] [звук с TS]
  • И грянул шторм / The Finest Hours (2016) WEB-DL [H.264 / 1080p-LQ] [Line]
  • И грянул шторм / The Finest Hours (2016) WEB-DLRip [H.264] [Line]
  • И грянул шторм / The Finest Hours (2016) WEB-DLRip [Line]


    • Комментарии (0):

      Информация

      Информация

        Посетители, находящиеся в группе Гости, не могут оставлять комментарии в данной новости.

        ↓ Меню




        ↓ Опрос

        Вы добавили сайт в закладки?
        Да
        Нет


        Top 10 за месяц (Фильмы)