.
Авторизация | Регистрация
Хочешь лучшие торренты? Добавь свой email!
Добавить

Торрент скачать бесплатно

» » Омерзительная восьмерка / The Hateful Eight (2015) DVD5 торрент скачать бесплатно




    Омерзительная восьмерка / The Hateful Eight (2015) DVD5 торрент скачать бесплатно

    Опубликовал: Админ | Дата: 30-06-2016, 04:00 | Просмотров: 65

    Производство: США/The Weinstein Company LLC
    Жанр: Триллер, драма, криминал, детектив, вестерн
    Режиссер: Квентин Тарантино
    Продюсеры: Ричард Н. Гладштейн, Шеннон МакИнтош, Стейси Шер

    Актеры
    Курт Рассел, Сэмюэл Л. Джексон, Тим Рот, Майкл Мэдсен, Дженнифер Джейсон Ли, Уолтон Гоггинс, Демиан Бишир, Брюс Дерн, Джеймс Паркс, Дэна Гурье

    Описание

    США после Гражданской войны. Легендарный охотник за головами Джон Рут по кличке Вешатель конвоирует заключенную. По пути к ним прибиваются еще несколько путешественников. Снежная буря вынуждает компанию искать укрытие в лавке на отшибе, где уже расположилось весьма пестрое общество: генерал конфедератов, мексиканец, ковбой… И один из них — не тот, за кого себя выдает.

    Возраст: 18+ (зрителям, достигшим 18 лет. запрещено для детей)
    Рейтинг MPAA: R (лицам до 17 лет обязательно присутствие взрослого)
    Дата мировой премьеры: 7 декабря 2015
    Дата премьеры в России: 14 января 2016, Централ Партнершип
    Дата выхода DVD релиза: 16 мая 2016, Новый Диск

    Продолжительность: 02: 40: 52
    Качество видео: DVD5
    Перевод: Дублированный (лицензия)
    Субтитры: Отсутствуют
    Видео: MPEG-2, 720x576@1024x576 (PAL 16: 9), ~3575 Kbps
    Аудио: AC3 5.1, 448 Kbps (Русский - дублированный)
    Код:
    Title: The Hateful Eight (2015) DVD5
    Size: 4.38 Gb ( 4 589 412, 00 KBytes ) - DVD-5
    Enabled regions: 1, 2, 3, 4, 5, 6, 7, 8
    VTS_01 :
    Play Length: 00:00:00
    Video: PAL 4:3 (720x576) VBR
    Audio:
    English (Dolby AC3, 2 ch)
    VTS_02 :
    Play Length: 02:40:52
    Video: PAL 16:9 (720x576) VBR, Auto Letterboxed
    Audio:
    Russian (Dolby AC3, 6 ch)
    * Menus Information *
    VIDEO_TS Menu
    Video:
    PAL 4:3 (720x576) VBR
    English Language Unit :
    Title Menu
    VTS_01 Menu
    Video:
    PAL 16:9 (720x576) VBR
    Auto Letterboxed
    Audio:
    Not specified (Dolby AC3, 2 ch)
    English Language Unit :
    Root Menu
    VTS_02 Menu
    Video:
    PAL 4:3 (720x576) VBR
    English Language Unit :
    Root Menu
    Код:
    Общее
    Полное имя : G:ВидеоThe Hateful Eight (2015) DVD5VIDEO_TSVTS_02_1.VOB
    Формат : MPEG-PS
    Размер файла : 1024 Мбайт
    Продолжительность : 34 м.
    Режим общего битрейта : Переменный
    Общий поток : 4105 Кбит/сек
    Видео
    Идентификатор : 224 (0xE0)
    Формат : MPEG Video
    Версия формата : Version 2
    Профиль формата : Main@Main
    Параметр BVOP формата : Да
    Параметр матрицы формата : Выборочная
    Параметр GOP формата : Variable
    Продолжительность : 34 м.
    Вид битрейта : Переменный
    Битрейт : 3575 Кбит/сек
    Максимальный битрейт : 5366 Кбит/сек
    Ширина : 720 пикселей
    Высота : 576 пикселей
    Соотношение сторон : 16:9
    Частота кадров : 25, 000 кадров/сек
    Стандарт вещания : PAL
    Цветовое пространство : YUV
    Субдискретизация насыщенности : 4:2:0
    Битовая глубина : 8 бит
    Тип развёртки : Прогрессивная
    Порядок развёртки : Нижнее поле первое
    Метод сжатия : С потерями
    Бит/(Пиксели*Кадры) : 0.345
    Временной код первого кадра : 00:00:00:00
    Оригинал временного кода : Group of pictures t_head
    GOP, открыто/закрыто : Открыто
    GOP, открыто/закрыто на первом кадре : Закрыто
    Размер потока : 892 Мбайт (87%)
    Аудио
    Идентификатор : 189 (0xBD)-128 (0x80)
    Формат : AC-3
    Формат/Информация : Audio Coding 3
    Расширение режима : CM (complete main)
    Параметр Endianness формата : Big
    Режим смешивания : DVD-Video
    Продолжительность : 34 м.
    Вид битрейта : Постоянный
    Битрейт : 448 Кбит/сек
    Каналы : 6 каналов
    Расположение каналов : Front: L C R, Side: L R, LFE
    Частота : 48, 0 КГц
    Частота кадров : 31, 250 кадров/сек (1536 spf)
    Метод сжатия : С потерями
    Размер потока : 112 Мбайт (11%)
    Меню


    Скриншоты для ознакомления




    Онлайн видео Омерзительная восьмерка



    Омерзительная восьмерка/The Hateful Eight (2015) DVD5
    загрузка...
    Рейтинг →
     (голосов: 1, оценка 4/5, голосовать можно 1 раз )

    Другие торренты по теме:

  • Омерзительная восьмерка / The Hateful Eight (2015) WEBRip [H.264 / 1080p] [Трейлер] скачать через торрент бесплатно
  • Омерзительная восьмерка / The Hateful Eight (2015) DVDScr [EN] скачать через торрент бесплатно
  • Омерзительная восьмерка / The Hateful Eight (2015) DVDScr скачать через торрент бесплатно
  • Омерзительная восьмерка / The Hateful Eight (2015) DVDScr [AVO]
  • Омерзительная восьмерка / The Hateful Eight (2015) DVDScr [Звук с TS]
  • Омерзительная восьмерка / The Hateful Eight (2015) BDRip [H.264 / 720p] [Line]
  • Омерзительная восьмерка / The Hateful Eight (2015) BDRip [H.264 / 1080p] [Line]
  • Омерзительная восьмерка / The Hateful Eight (2015) HDRip [H.264] [Line]


    • Комментарии (0):

      Информация

      Информация

        Посетители, находящиеся в группе Гости, не могут оставлять комментарии в данной новости.

        ↓ Меню




        ↓ Опрос

        Вы добавили сайт в закладки?
        Да
        Нет


        Top 10 за месяц (Фильмы)