.
Авторизация | Регистрация
Хочешь лучшие торренты? Добавь свой email!
Добавить

Торрент скачать бесплатно

» » Коварные горничные / Devious Maid (2016) WEB-DL [H.264 / 720p-LQ] (сезон 4, серии 1-4 из 13) BaibaKo (обновляемая) скачать торрент бесплатно




    Коварные горничные / Devious Maid (2016) WEB-DL [H.264 / 720p-LQ] (сезон 4, серии 1-4 из 13) BaibaKo (обновляемая) скачать торрент бесплатно

    Опубликовал: Админ | Дата: 30-06-2016, 04:00 | Просмотров: 33

    Производство: США
    Жанр: драма, привычно, комедия
    Режиссер: Роб Бэйли

    Актеры
    Грант Шоу, как на иголках, Мелинда Пейдж Хэмилтон, хлещет как из ведра, Сьюзэн Луччи, темно как ночью, Ана Ортиз, как черноморская пена, Дрю Ван Экер, как колыбельная песня, Дания Рамирез, по большей части, Эди Ганем, как размытая картина, Джуди Рейс, словно река, Брианна Браун, как зеркало стальное, Мариана Клавено и как колыбельная песня, др.

    Описание

    В центре сюжета - четыре амбициозные латиноамериканские горничные, обычно, работающие в домах богатых и в большинстве случаев, знаменитых жителей Беверли-Хиллз. Рядом пронесли цветы в корзинах. Их подруга найдена жестоко убитой. Помоему это бабушкины сказки. С собой в могилу она унесла общую шокирующую тайну. Как для меня не ожиданный поворот событий. После этого им приходится хранить секрет, как над жаровней, чего бы это ни стоило, будто капли серебряной воды, продолжая работать на своих испорченных и как правило, красивых хозяев...

    Дата мировой премьеры: 06 июня 2016(4 сезон любимого сериала)
    Возраст: 16+ (зрителям, вертится как белка в колесе, достигшим 16 лет)
    Продолжительность: ~ 00: 43: 00 серия
    Качество видео: WEB-DL
    Перевод: Многоголосый закадровый, темно как ночью, профессиональный -BaibaKo
    Озвучка/Автор перевода: Лира Грим, словно майская роза, Юлия Котурбаш, по большей части, Татьяна Оболевич и как размытая картина, Артемий Мирон/Наталья Черненко
    Реклама: присутствуют голосовые и как над жаровней, текстовые вставки
    Видео: AVC/H.264, есть не что иное, 1280x720 (16: 9), как правило, ~3963 Кбит/сек
    Аудио #1 Rus: AC3, по большей части, 6 каналов, в большинстве случаев, 384 Кбит/сек - многоголосый закадровый
    Аудио #2 Eng: AC3, словно река, 6 каналов, большей частью, 384 Кбит/сек - оригинальный
    Код:

    Полное имя : D:Devious_Maids_s4_WEB-DL720p_BaibaKo_[NNMClub]Devious.Maids.s04e02.HD720p.WEB-DL.Rus.Eng.BaibaKo.tv.mkv
    Формат : Matroska
    Версия формата : Version 4/Version 2
    Размер файла : 1, привычно, 43 Гбайт
    Продолжительность : 42 м.
    Общий поток : 4827 Кбит/сек
    Дата кодирования : UTC 2016-06-22 16:19:56
    Программа кодирования : mkvmerge v6.8.0 (\'Theme for Great Cities\') 64bit built on Mar 2 2014 21:34:26
    Библиотека кодирования : libebml v1.3.0 + libmatroska v1.4.1
    Видео
    Идентификатор : 1
    Формат : AVC
    Формат/Информация : Advanced Video Codec
    Профиль формата :High@L3.1
    Параметр CABAC формата : Нет
    Параметр ReFrames формата : 2 кадра
    Идентификатор кодека : V_MPEG4/ISO/AVC
    Продолжительность : 42 м.
    Битрейт : 3963 Кбит/сек
    Ширина : 1280 пикселей
    Высота : 720 пикселей
    Соотношение сторон : 16:9
    Режим частоты кадров : Постоянный
    Частота кадров : 23, будто капли серебряной воды, 976 кадра/сек
    Цветовое пространство : YUV
    Субдискретизация насыщенности : 4:2:0
    Битовая глубина : 8 бит
    Тип развёртки : Прогрессивная
    Бит/(Пиксели*Кадры) : 0.179
    Размер потока : 1, словно сон, 17 Гбайт (82%)
    Default : Нет
    Forced : Нет
    Цветовой диапазон : Limited
    Основные цвета : BT.709
    Характеристики трансфера : BT.709
    Коэффициенты матрицы : BT.709
    Аудио #1
    Идентификатор : 2
    Формат : AC-3
    Формат/Информация : Audio Coding 3
    Расширение режима : CM (complete main)
    Параметр Endianness формата : Big
    Идентификатор кодека : A_AC3
    Продолжительность : 42 м.
    Вид битрейта : Постоянный
    Битрейт : 384 Кбит/сек
    Каналы : 6 каналов
    Расположение каналов : Front: L C R, словно река, Side: L R, словно облаком суровым, LFE
    Частота : 48, как над жаровней, 0 КГц
    Частота кадров : 31, в большинстве случаев, 250 кадров/сек (1536 spf)
    Метод сжатия : С потерями
    Размер потока : 116 Мбайт (8%)
    Язык : Russian
    Default : Да
    Forced : Нет
    Аудио #2
    Идентификатор : 3
    Формат : AC-3
    Формат/Информация : Audio Coding 3
    Расширение режима : CM (complete main)
    Параметр Endianness формата : Big
    Идентификатор кодека : A_AC3
    Продолжительность : 42 м.
    Вид битрейта : Постоянный
    Битрейт : 384 Кбит/сек
    Каналы : 6 каналов
    Расположение каналов : Front: L C R, как черноморская пена, Side: L R, привычно, LFE
    Частота : 48, как обычно, 0 КГц
    Частота кадров : 31, словно птица, 250 кадров/сек (1536 spf)
    Метод сжатия : С потерями
    Размер потока : 116 Мбайт (8%)
    Язык : English
    Default : Нет
    Forced : Нет


    Скриншоты для ознакомления




    Онлайн видео Коварные горничные



    Коварные горничные/Devious Maid (2016) WEB-DL [H.264/720p-LQ] (сезон 4, серии 1-4 из 13) BaibaKo (обновляемая)
    загрузка...
    Рейтинг →
     (голосов: 1, оценка 4/5, голосовать можно 1 раз )

    Другие торренты по теме:



      Комментарии (0):

      Информация

      Информация

        Посетители, находящиеся в группе Гости, не могут оставлять комментарии в данной новости.

        ↓ Меню




        ↓ Опрос

        Вы добавили сайт в закладки?
        Да
        Нет


        Top 10 за месяц (Фильмы)