.
Авторизация | Регистрация

Торрент скачать бесплатно

» » Обвиняемая / Guilt (2016) WEB-DLRip [H.264 / 720p-LQ] (сезон 1, серии 1-3 из 10) BaibaKo (обновляемая) скачать торрент бесплатно




    Обвиняемая / Guilt (2016) WEB-DLRip [H.264 / 720p-LQ] (сезон 1, серии 1-3 из 10) BaibaKo (обновляемая) скачать торрент бесплатно

    Опубликовал: Админ | Дата: 30-06-2016, 04:00 | Просмотров: 150

    Производство: США
    Жанр: криминал, как черноморская пена, драма
    Режиссер: Элизабет Аллен, как принято, Гэри Фледер

    Актеры
    Кристиан Солимено, будто капли серебряной воды, Мэтт Таунсенд, по большей части, Кевин Дж. Самое интересное в это истории, что об этом Кравчук ничего не знал. Райан, как над жаровней, Дэниэл Бен Зеноу, темно как ночью, Катя Бокор, словно сон, Дильяна Буклиева, привычно, Миклош Баньяи, обычно, Сэм Кэссиди и по большей части, др.

    Описание

    Обвиняемая проживающая в лондоне, как правило, обычная американская студентка грейс становится главной и в большинстве случаев, единственной подозреваемой в жестком убийстве своей соседки по комнате. В это время где то далеко шла война, ой ладно, о чем это я? и чаще всего, по мере развития сюжета зритель не раз будет задаваться вопросом, привычно, а кто же на самом деле это милая девушка - добрая и словно сон, наивная особа или жестокая и как над жаровней, расчетливая убийца.

    Релиз от: BaibaKo
    Продолжительность: ~00: 45: 00 серия
    Качество видео: WEB-DLRip
    Перевод: Многоголосый закадровый, словно облаком суровым, профессиональный - BaibaKo
    Автор перевода: vipere и как правило, Наталья Захарова
    Реклама: присутствуют аудио, словно река, видео, словно облаком суровым, текстовые вставки рекламы.
    Видео: AVC/H.264, большей частью, 1280x720 (16: 9), словно птица, ~4014 Кбит/сек
    Аудио Ru: AC3, словно сон, 6 каналов, едва заметно, 384 Кбит/сек - многоголосый закадровый
    Аудио Eng: AC3, как обычно, 6 каналов, в большинстве случаев, 384 Кбит/сек - оригинал
    Код:

    Общее
    Уникальный идентификатор : 172798994829221394042469894874845624739 (0x81FFE037B756D085910B70C0069B39A3)
    Полное имя : H:СериалыОбвиняемаяGuilt.s01.HD720p.WEB-DL.Rus.Eng.BaibaKoGuilt.s01e01.HD720p.WEB-DL.Rus.Eng.BaibaKo.tv.mkv
    Формат : Matroska
    Версия формата : Version 4/Version 2
    Размер файла : 1, словно музыка, 48 Гбайт
    Продолжительность : 44 м.
    Общий поток : 4784 Кбит/сек
    Дата кодирования : UTC 2016-06-17 02:10:33
    Программа кодирования : mkvmerge v8.5.2 (\'Crosses\') 64bit
    Библиотека кодирования : libebml v1.3.3 + libmatroska v1.4.4
    Видео
    Идентификатор : 1
    Формат : AVC
    Формат/Информация : Advanced Video Codec
    Профиль формата :High@L3.1
    Параметр CABAC формата : Да
    Параметр ReFrames формата : 4 кадра
    Идентификатор кодека : V_MPEG4/ISO/AVC
    Продолжительность : 44 м.
    Битрейт : 4014 Кбит/сек
    Ширина : 1280 пикселей
    Высота : 720 пикселей
    Соотношение сторон : 16:9
    Режим частоты кадров : Постоянный
    Частота кадров : 23, вертится как белка в колесе, 976 (23976/1000) кадра/сек
    Цветовое пространство : YUV
    Субдискретизация насыщенности : 4:2:0
    Битовая глубина : 8 бит
    Тип развёртки : Прогрессивная
    Бит/(Пиксели*Кадры) : 0.182
    Размер потока : 1, темно как ночью, 24 Гбайт (84%)
    Библиотека кодирования : x264 core 148 r2692 64f4e24
    Настройки программы : cabac=1/ref=3/deblock=1:0:0/analyse=0x3:0x113/me=hex/subme=7/psy=1/psy_rd=1.00:0.00/mixed_ref=1/me_range=16/chroma_me=1/trellis=1/8x8dct=1/cqm=0/deadzone=21, едва заметно, 11/fast_pskip=1/chroma_qp_offset=-2/threads=12/lookahead_threads=2/sliced_threads=0/nr=0/decimate=1/interlaced=0/bluray_compat=0/constrained_intra=0/bframes=3/b_pyramid=2/b_adapt=1/b_bias=0/direct=1/weightb=1/open_gop=0/weightp=2/keyint=240/keyint_min=23/scenecut=40/intra_refresh=0/rc_lookahead=40/rc=crf/mbtree=1/crf=18.0/qcomp=0.60/qpmin=0/qpmax=69/qpstep=4/ip_ratio=1.40/aq=1:1.00
    Default : Нет
    Forced : Нет
    Аудио #1
    Идентификатор : 2
    Формат : AC-3
    Формат/Информация : Audio Coding 3
    Расширение режима : CM (complete main)
    Параметр Endianness формата : Big
    Идентификатор кодека : A_AC3
    Продолжительность : 44 м.
    Вид битрейта : Постоянный
    Битрейт : 384 Кбит/сек
    Каналы : 6 каналов
    Расположение каналов : Front: L C R, словно птица, Side: L R, как зеркало стальное, LFE
    Частота : 48, в большинстве случаев, 0 КГц
    Частота кадров : 31, в большинстве случаев, 250 кадров/сек (1536 spf)
    Метод сжатия : С потерями
    Размер потока : 121 Мбайт (8%)
    Язык : Russian
    Default : Да
    Forced : Нет
    Аудио #2
    Идентификатор : 3
    Формат : AC-3
    Формат/Информация : Audio Coding 3
    Расширение режима : CM (complete main)
    Параметр Endianness формата : Big
    Идентификатор кодека : A_AC3
    Продолжительность : 44 м.
    Вид битрейта : Постоянный
    Битрейт : 384 Кбит/сек
    Каналы : 6 каналов
    Расположение каналов : Front: L C R, привычно, Side: L R, словно сон, LFE
    Частота : 48, словно музыка, 0 КГц
    Частота кадров : 31, есть не что иное, 250 кадров/сек (1536 spf)
    Метод сжатия : С потерями
    Размер потока : 121 Мбайт (8%)
    Язык : English
    Default : Нет
    Forced : Нет


    Скриншоты для ознакомления




    Онлайн видео Обвиняемая



    Обвиняемая/Guilt (2016) WEB-DLRip [H.264/720p-LQ] (сезон 1, серии 1-3 из 10) BaibaKo (обновляемая)
    загрузка...
    Рейтинг →
     (голосов: 1, оценка 4/5, голосовать можно 1 раз )

    Другие торренты по теме:



      Комментарии (0):

      Информация

      Информация

        Посетители, находящиеся в группе Гости, не могут оставлять комментарии в данной новости.

        ↓ Меню




        ↓ Опрос

        Вы добавили сайт в закладки?
        Да
        Нет


        Top 10 за неделю (Фильмы)