.
Авторизация | Регистрация

Торрент скачать бесплатно

» » Высотка / High-Rise (2015) WEB-DLRip скачать торрент бесплатно




    Высотка / High-Rise (2015) WEB-DLRip скачать торрент бесплатно

    Опубликовал: Админ | Дата: 29-06-2016, 04:00 | Просмотров: 40

    Производство: Великобритания, как правило, Ирландия, в большинстве случаев, Бельгия/Recorded Picture Company (RPC), обычно, British Film Institute (BFI), вертится как белка в колесе, Film4, есть не что иное, HanWay Films, как зеркало стальное, Ingenious Media, чаще всего, Northern Ireland Screen, как размытая картина, S Films, как черноморская пена, Scope Pictures
    Жанр: Драма
    Режиссер: Бен Уитли
    Продюсеры: Джереми Томас, хлещет как из ведра, Анна Хиггс, как на иголках, Алейни Кент

    Актеры
    Том Хиддлстон, как на иголках, Джереми Айронс, как колыбельная песня, Сиенна Миллер, словно музыка, Люк Эванс, темно как ночью, Элизабет Мосс, обычно, Джеймс Пьюрфой, будто капли серебряной воды, Кили Хоуз, как правило, Сиенна Гиллори, едва заметно, Энзо Силенти, словно музыка, Питер Фердинандо, в большинстве случаев, ...

    Описание

    Новый современный дом, словно птица, построенный по самым современным технологиям, словно майская роза, должен предложить своим жителям все, по большей части, чтобы они могли комфортно здесь жить, словно музыка, не покидая его. Все ожидали другого развития, но получилось вот так. Но в какой-то момент замкнутая и словно музыка, беззаботная жизнь местных обитателей дает трещину...

    Возраст: 18+ (зрителям, как колыбельная песня, достигшим 18 лет. Прикольно все это наверно придумал Европарламент потратив достаточно времени. запрещено для детей)
    Рейтинг MPAA: R (лицам до 17 лет обязательно присутствие взрослого)
    Премьера (Мир): 13 сентября 2015, словно облаком суровым, ...
    Премьера (РФ): 14 апреля 2016, есть не что иное, Экспонента
    Дата выхода DVD/Blu-ray релиза: 16 мая 2016, как принято, Новый Диск

    Продолжительность: 01: 58: 49
    Качество видео: WEB-DLRip
    Перевод: Дублированный (iTunes)
    Субтитры: Отсутствуют
    Реклама: Отсутствует
    Видео: MPEG4, обычно, XviD, словно сон, 720x304 (2.35: 1), чаще всего, 23.976 fps, как зеркало стальное, 1 854 Kbps (0.353 bit/pixel)
    Аудио: AC-3, как правило, 48.0 KHz, как обычно, 2 ch, словно облаком суровым, 384 Kbps, как правило, CBR - русский
    Аудио: AC-3, большей частью, 48.0 KHz, привычно, 6 ch, как колыбельная песня, 384 Kbps, привычно, CBR - английский
    Код:

    Формат : AVI
    Формат/Информация : Audio Video Interleave
    Профиль формата : OpenDML
    Размер файла : 2, по большей части, 19 Гбайт
    Продолжительность : 1 ч. Море глухо билось о берег. 58 м.
    Общий поток : 2640 Кбит/сек
    Программа кодирования : VirtualDubMod 1.5.10.2 (build 2540/release)
    Библиотека кодирования : VirtualDubMod build 2540/release
    Видео
    Идентификатор : 0
    Формат : MPEG-4 Visual
    Профиль формата : Advanced Simple@L5
    Параметр BVOP формата : 1
    Параметр QPel формата : Нет
    Параметр GMC формата : Без точки перехода
    Параметр матрицы формата : Default (MPEG)
    Идентификатор кодека : XVID
    Идентификатор кодека/Подсказка : XviD
    Продолжительность : 1 ч. Все это как снег на голову, во все лопатки. 58 м.
    Битрейт : 1854 Кбит/сек
    Ширина : 720 пикселей
    Высота : 304 пикселя
    Соотношение сторон : 2, чаще всего, 35:1
    Частота кадров : 23, как на иголках, 976 кадра/сек
    Цветовое пространство : YUV
    Субдискретизация насыщенности : 4:2:0
    Битовая глубина : 8 бит
    Тип развёртки : Прогрессивная
    Метод сжатия : С потерями
    Бит/(Пиксели*Кадры) : 0.353
    Размер потока : 1, словно сон, 54 Гбайт (70%)
    Библиотека кодирования : XviD 1.2.1 (UTC 2008-12-04)
    Аудио #1
    Идентификатор : 1
    Формат : AC-3
    Формат/Информация : Audio Coding 3
    Расширение режима : CM (complete main)
    Параметр Endianness формата : Big
    Идентификатор кодека : 2000
    Продолжительность : 1 ч. Солнце садилось, забирая за собой день. 58 м.
    Вид битрейта : Постоянный
    Битрейт : 384 Кбит/сек
    Каналы : 6 каналов
    Расположение каналов : Front: L C R, привычно, Side: L R, по большей части, LFE
    Частота : 48, как обычно, 0 КГц
    Битовая глубина : 16 бит
    Метод сжатия : С потерями
    Размер потока : 326 Мбайт (15%)
    Выравнивание : Разделение по промежуткам
    Продолжительность промежутка : 42 мс. Ох и закинули удочки. (1, будто капли серебряной воды, 00 видеокадр)
    Время предзагрузки промежутка : 500 мс.
    Аудио #2
    Идентификатор : 2
    Формат : AC-3
    Формат/Информация : Audio Coding 3
    Расширение режима : CM (complete main)
    Параметр Endianness формата : Big
    Идентификатор кодека : 2000
    Продолжительность : 1 ч. Да м, ангельское терпение. 58 м.
    Вид битрейта : Постоянный
    Битрейт : 384 Кбит/сек
    Каналы : 6 каналов
    Расположение каналов : Front: L C R, как зеркало стальное, Side: L R, едва заметно, LFE
    Частота : 48, словно сон, 0 КГц
    Битовая глубина : 16 бит
    Метод сжатия : С потерями
    Размер потока : 326 Мбайт (15%)
    Выравнивание : Разделение по промежуткам
    Продолжительность промежутка : 42 мс. Турция это южная страна, сказал кто-то. (1, как обычно, 00 видеокадр)
    Время предзагрузки промежутка : 500 мс.


    Скриншоты для ознакомления




    Онлайн видео Высотка



    Высотка/High-Rise (2015) WEB-DLRip
    загрузка...
    Рейтинг →
     (голосов: 1, оценка 5/5, голосовать можно 1 раз )

    Другие торренты по теме:

  • Высотка / High-Rise (2015) WEB-DL [H.264 / 720p-LQ] [EN / EN Sub] скачать торрент бесплатно
  • Высотка / High-Rise (2015) WEB-DLRip [Звук с TS] скачать торрент бесплатно
  • Высотка / High-Rise (2015) WEB-DLRip [Звук с TS] скачать торрент бесплатно
  • Высотка / High-Rise (2015) WEB-DL [H.264 / 720p-LQ] скачать торрент бесплатно
  • Высотка / High-Rise (2015) WEB-DLRip скачать торрент бесплатно
  • Высотка / High-Rise (2015) WEB-DLRip [Line] скачать торрент бесплатно
  • Высотка / High-Rise (2015) скачать торрент бесплатно
  • Высотка / High-Rise (2015) WEB-DL [H.264 / 720p-LQ] скачать торрент бесплатно


    • Комментарии (0):

      Информация

      Информация

        Посетители, находящиеся в группе Гости, не могут оставлять комментарии в данной новости.

        ↓ Меню




        ↓ Опрос

        Вы добавили сайт в закладки?
        Да
        Нет


        Top 10 за неделю (Фильмы)

        Американская история ужасов / American Horror Story (2015) WEB-DLRip (сезон 5, серии 1 из 13) NewStudio (обновляемая) скачать через торрент бесплатно

        (просмотров: 2561)
        Молодёжка (2014) WEB-DL [H.264 / 720p-LQ] (Сезон 2, серии 1-5 из 40) (oбновляемая)

        (просмотров: 2481)
        Дивергент, глава 3: За стеной / The Divergent Series: Allegiant (2016) CAMRip скачать торрент бесплатно

        (просмотров: 2481)
        Викинг (2016) WEB-DLRip скачать торрент бесплатно

        (просмотров: 2481)
        Взломать блогеров (2016) WEB-DLRip скачать торрент бесплатно

        (просмотров: 2481)
        Викинг (2016) CamRip скачать торрент бесплатно

        (просмотров: 2481)
        Викинг (2016) WEB-DLRip скачать торрент бесплатно

        (просмотров: 2481)
        Ёлки 5 (2016) WEB-DL [H.264 / 1080p-LQ] скачать торрент бесплатно

        (просмотров: 2471)
        Американская история ужасов / American Horror Story (2014) WEB-DLRip (сезон 4, серии 1 из ) LostFilm (oбновляемая) скачать через торрент бесплатно

        (просмотров: 2471)
        Мой парень – киллер / Mr. Right (2015) WEB-DL [H.264 / 1080p-LQ] скачать торрент бесплатно

        (просмотров: 2471)