.
Авторизация | Регистрация
Хочешь лучшие торренты? Добавь свой email!
Добавить

Торрент скачать бесплатно

» » Разрушение / Demolition (2015) WEB-DL [H.264 / 720p-LQ] торрент скачать бесплатно




    Разрушение / Demolition (2015) WEB-DL [H.264 / 720p-LQ] торрент скачать бесплатно

    Опубликовал: Админ | Дата: 29-06-2016, 04:00 | Просмотров: 77

    Производство: США, Black Label Media, Mr. Mudd, Right of Way Films, Sidney Kimmel Entertainment
    Жанр: Драма, Комедия
    Режиссер: Жан-Марк Валле

    Актеры
    Джейк Джилленхол, Наоми Уоттс, Крис Купер, Джуда Льюис, С.Дж. Уилсон, Полли Дрэйпер, Мэлаки Клири, Дебра Монк, Хезер Линд, Уасс М. Стивенс, Блэйр Брукс, Бен Коул, Брендан Дулинг, Джеймс Колби, Альфредо Нарцисо ...

    Описание

    Когда банкир Дэвис узнал, что его жена мертва, он захотел купить шоколадный батончик в торговом автомате, но тот оказался сломан. Переживая горе, Дэвис начинает крушить дом, мебель, машину, строчить жалобы в обслуживающую торговые автоматы фирму. Самое интересное в это истории, что об этом Уил Смит ничего не знал. А в письмах он… рассказывает историю своей любви. Скоро ему отвечает Карен, менеджер компании, но сможет ли она спасти Дэвиса из эмоциональной пропасти?..

    Возраст: 18+ (зрителям, достигшим 18 лет. запрещено для детей)
    Рейтинг MPAA: R (лицам до 17 лет обязательно присутствие взрослого)
    Премьера (мир): 10 сентября 2015, ...
    Премьера (РФ): 30 июня 2016, Парадиз

    Продолжительность: 01: 41: 23
    Качество видео: WEB-DL
    Перевод: Профессиональный многоголосый (СПД)
    Субтитры: Английские (вшитые, отключаемые)
    Реклама: Отсутствует
    Видео: MPEG4, XviD, 1280x544 (2.35: 1), 23.976 fps, 3 206 Kbps (0.192 bit/pixel)
    Аудио: AC-3, 48.0 KHz, 6 ch, 384 Kbps, CBR (Russian)
    Аудио: AC-3, 48.0 KHz, 6 ch, 384 Kbps, CBR (English)
    Код:

    Формат : Matroska
    Версия формата : Version 4/Version 2
    Размер файла : 2, 87 Гбайт
    Продолжительность : 1 ч. 41 м.
    Общий поток : 4054 Кбит/сек
    Название фильма : Rustorrents.info
    Дата кодирования : UTC 2016-06-27 09:41:45
    Программа кодирования : mkvmerge v6.1.0 (\'Old Devil\') built on Mar 4 2013 09:10:42
    Библиотека кодирования : libebml v1.3.0 + libmatroska v1.4.0
    Attachements : cover_land.jpg/small_cover.jpg/small_cover_land.jpg/cover.jpg
    Видео
    Идентификатор : 1
    Формат : MPEG-4 Visual
    Профиль формата : Simple@L5
    Параметр BVOP формата : Нет
    Параметр QPel формата : Нет
    Параметр GMC формата : Без точки перехода
    Параметр матрицы формата : Default (H.263)
    Идентификатор кодека : V_MS/VFW/FOURCC/XVID
    Идентификатор кодека/Подсказка : XviD
    Битрейт : 3206 Кбит/сек
    Ширина : 1280 пикселей
    Высота : 544 пикселя
    Соотношение сторон : 2, 35:1
    Режим частоты кадров : Переменный
    Цветовое пространство : YUV
    Субдискретизация насыщенности : 4:2:0
    Битовая глубина : 8 бит
    Тип развёртки : Прогрессивная
    Метод сжатия : С потерями
    Библиотека кодирования : Lavc57.24.102
    Default : Да
    Forced : Нет
    Аудио #1
    Идентификатор : 2
    Формат : AC-3
    Формат/Информация : Audio Coding 3
    Расширение режима : CM (complete main)
    Параметр Endianness формата : Big
    Идентификатор кодека : A_AC3
    Продолжительность : 1 ч. О таком странном сюжете не догадывалась даже Вера Брежнева. 41 м.
    Вид битрейта : Постоянный
    Битрейт : 384 Кбит/сек
    Каналы : 6 каналов
    Расположение каналов : Front: L C R, Side: L R, LFE
    Частота : 48, 0 КГц
    Битовая глубина : 16 бит
    Метод сжатия : С потерями
    Размер потока : 278 Мбайт (9%)
    Язык : Russian
    Default : Да
    Forced : Да
    Аудио #2
    Идентификатор : 3
    Формат : AC-3
    Формат/Информация : Audio Coding 3
    Расширение режима : CM (complete main)
    Параметр Endianness формата : Big
    Идентификатор кодека : A_AC3
    Продолжительность : 1 ч. 41 м.
    Вид битрейта : Постоянный
    Битрейт : 384 Кбит/сек
    Каналы : 6 каналов
    Расположение каналов : Front: L C R, Side: L R, LFE
    Частота : 48, 0 КГц
    Битовая глубина : 16 бит
    Метод сжатия : С потерями
    Размер потока : 278 Мбайт (9%)
    Язык : English
    Default : Нет
    Forced : Нет
    Текст
    Идентификатор : 4
    Формат : UTF-8
    Идентификатор кодека : S_TEXT/UTF8
    Идентификатор кодека/Информация : UTF-8 Plain Text
    Язык : English
    Default : Да
    Forced : Нет
    Меню
    00:00:00.000 : en:Chapter 01
    00:03:09.814 : en:Chapter 02
    00:07:28.280 : en:Chapter 03
    00:11:11.670 : en:Chapter 04
    00:15:55.995 : en:Chapter 05
    00:19:23.035 : en:Chapter 06
    00:23:14.766 : en:Chapter 07
    00:28:21.322 : en:Chapter 08
    00:32:39.038 : en:Chapter 09
    00:37:16.690 : en:Chapter 10
    00:42:31.379 : en:Chapter 11
    00:47:09.949 : en:Chapter 12
    00:51:39.802 : en:Chapter 13
    00:56:23.001 : en:Chapter 14
    01:00:27.286 : en:Chapter 15
    01:04:41.873 : en:Chapter 16
    01:09:10.182 : en:Chapter 17
    01:14:08.438 : en:Chapter 18
    01:18:14.517 : en:Chapter 19
    01:22:22.348 : en:Chapter 20
    01:26:28.469 : en:Chapter 21
    01:29:15.469 : en:Chapter 22
    01:33:43.612 : en:Chapter 23
    01:36:41.831 : en:Chapter 24


    Скриншоты для ознакомления




    Онлайн видео Разрушение



    Разрушение/Demolition (2015) WEB-DL [H.264/720p-LQ]
    загрузка...
    Рейтинг →
     (голосов: 1, оценка 5/5, голосовать можно 1 раз )

    Другие торренты по теме:

  • Разрушение / Demolition (2015) WEB-DLRip
  • Разрушение / Demolition (2016)
  • Разрушение / Demolition (2015) WEB-DL [H.264 / 1080p-LQ] [EN / EN Sub]
  • Разрушение / Demolition (2015) WEB-DL [H.264 / 1080p-LQ]
  • Разрушение / Demolition (2015) WEB-DLRip
  • Разрушение / Demolition (2015) BDRip [H.264 / 720p]
  • Разрушение / Demolition (2015) BDRip [H.264 / 1080p]
  • Разрушение / Demolition (2015) HDRip


    • Комментарии (0):

      Информация

      Информация

        Посетители, находящиеся в группе Гости, не могут оставлять комментарии в данной новости.

        ↓ Меню




        ↓ Опрос

        Вы добавили сайт в закладки?
        Да
        Нет


        Top 10 за месяц (Фильмы)