.
Авторизация | Регистрация
Хочешь лучшие торренты? Добавь свой email!
Добавить

Торрент скачать бесплатно

» » Основные принципы добра / The Fundamentals of Caring (2016) WEBRip [H.264 / 720p-LQ] [EN / EN, ITA, GER, POR, SPA, POL, TUR, NOR, FRE, FIN, DUT Sub] торрент скачать бесплатно




    Основные принципы добра / The Fundamentals of Caring (2016) WEBRip [H.264 / 720p-LQ] [EN / EN, ITA, GER, POR, SPA, POL, TUR, NOR, FRE, FIN, DUT Sub] торрент скачать бесплатно

    Опубликовал: Админ | Дата: 29-06-2016, 04:00 | Просмотров: 27

    Производство: США, Worldwide Pants
    Жанр: Драма
    Режиссер: Роб Барнетт

    Актеры
    Пол Радд, Селена Гомес, Дженнифер Или, Крэйг Робертс, Меган Фергюсон, Патти Шхелхаш, Уолтер Хендрикс III, Эшли Уайт, Блейк Сьюэлл, Алан Боэлл...

    Описание

    Пережив страшную трагедию, Бен оказывается опустошённым психически, покорёженным ментально, он решает полностью пересмотреть свои жизненные принципы и приоритеты, найти новую профессию и новый смысл существования. Своим обновлённым призванием Бен видит помощь нуждающимся, забытым людям. Законченный самовлюблённый эгоист, всю жизнь живший ради себя любимого, начинает ухаживать за инвалидами.
    Первым клиентом главного героя драматической картины “Основные принципы добра” становится 18-летний парень, страдающий мышечной дистрофией. Эта необычная парочка – один парализован эмоционально, другой – физически – предпримет путешествие в западные штаты, в котором им предстоит проверить свои экзистенциальные навыки в суровых нетепличных условиях. О таком странном сюжете не догадывалась даже Анастасия Стоцкая. Конечной целью путешественников является научиться жить со своими телом и душой и обрести утраченную надежду.

    Премьера (мир): 29 января 2016, ...
    Продолжительность: 01: 33: 23
    Качество видео: WEBRip 720p
    Перевод: Отсутствует
    Язык озвучки: Английский
    Язык субтитров: Английский, итальянский, немецкий, португальский, испанский, польский, турецкий, норвежский, французский, финский, нидерландский
    Вид субтитров: Вшитые отключаемые
    Видео: AVC, 1280x534 (2.35: 1), 23.976 fps, 2 044 Kbps (0.125 bit/pixel)
    Аудио: AC-3, 48.0 KHz, 6 ch, 640 Kbps, CBR (English)
    Код:

    General
    Unique ID : 204172628399214796814029832758822099008 (0x999A37C75DA0309D8DE1FAEA17BAD840)
    Complete name : E:VideoThe.Fundamentals.of.Caring.2016.720p.WEBRip.mkv
    Format : Matroska
    Format version : Version 4/Version 2
    File size : 1.75 GiB
    Duration : 1h 33mn
    Overall bit rate : 2 687 Kbps
    Encoded date : UTC 2016-06-24 14:50:57
    Writing application : mkvmerge v7.8.0 (\'River Man\') 64bit built on Mar 27 2015 16:31:37
    Writing library : libebml v1.3.1 + libmatroska v1.4.2
    Video
    ID : 1
    Format : AVC
    Format/Info : Advanced Video Codec
    Format profile :High@L4.1
    Format settings, CABAC : Yes
    Format settings, ReFrames : 8 frames
    Codec ID : V_MPEG4/ISO/AVC
    Duration : 1h 33mn
    Bit rate : 2 044 Kbps
    Width : 1 280 pixels
    Height : 534 pixels
    Display aspect ratio : 2.40:1
    Frame rate mode : Constant
    Frame rate : 23.976 (24000/1001) fps
    Color space : YUV
    Chroma subsampling : 4:2:0
    Bit depth : 8 bits
    Scan type : Progressive
    Bits/(Pixel*Frame) : 0.125
    Stream size : 1.33 GiB (76%)
    Writing library : x264 core 148 r2694 3b70645
    Encoding settings : cabac=1/ref=8/deblock=1:-2:-2/analyse=0x3:0x133/me=umh/subme=9/psy=1/psy_rd=1.00:0.15/mixed_ref=1/me_range=16/chroma_me=1/trellis=2/8x8dct=1/cqm=0/deadzone=21, 11/fast_pskip=1/chroma_qp_offset=-3/threads=12/lookahead_threads=1/sliced_threads=0/nr=0/decimate=1/interlaced=0/bluray_compat=0/constrained_intra=0/bframes=4/b_pyramid=2/b_adapt=2/b_bias=0/direct=3/weightb=1/open_gop=0/weightp=2/keyint=240/keyint_min=23/scenecut=40/intra_refresh=0/rc_lookahead=60/rc=crf/mbtree=1/crf=18.0/qcomp=0.70/qpmin=0/qpmax=69/qpstep=4/ip_ratio=1.40/aq=3:0.80
    Language : English
    Default : Yes
    Forced : No
    Color range : Limited
    Color primaries : BT.709
    Transfer characteristics : BT.709
    Matrix coefficients : BT.709
    Audio
    ID : 6
    Format : AC-3
    Format/Info : Audio Coding 3
    Mode extension : CM (complete main)
    Format settings, Endianness : Big
    Codec ID : A_AC3
    Duration : 1h 33mn
    Bit rate mode : Constant
    Bit rate : 640 Kbps
    Channel(s) : 6 channels
    Channel positions : Front: L C R, Side: L R, LFE
    Sampling rate : 48.0 KHz
    Frame rate : 31.250 fps (1536 spf)
    Compression mode : Lossy
    Stream size : 428 MiB (24%)
    Language : English
    Default : Yes
    Forced : Yes
    Text #1
    ID : 2
    Format : UTF-8
    Codec ID : S_TEXT/UTF8
    Codec ID/Info : UTF-8 Plain Text
    Duration : 1h 27mn
    Bit rate : 63 bps
    Count of elements : 1079
    Stream size : 40.5 KiB (0%)
    Language : English
    Default : No
    Forced : No
    Text #2
    ID : 3
    Format : UTF-8
    Codec ID : S_TEXT/UTF8
    Codec ID/Info : UTF-8 Plain Text
    Duration : 1h 27mn
    Bit rate : 59 bps
    Count of elements : 1006
    Stream size : 38.3 KiB (0%)
    Language : Italian
    Default : No
    Forced : No
    Text #3
    ID : 4
    Format : UTF-8
    Codec ID : S_TEXT/UTF8
    Codec ID/Info : UTF-8 Plain Text
    Duration : 1h 27mn
    Bit rate : 58 bps
    Count of elements : 981
    Stream size : 37.5 KiB (0%)
    Language : German
    Default : No
    Forced : No
    Text #4
    ID : 5
    Format : UTF-8
    Codec ID : S_TEXT/UTF8
    Codec ID/Info : UTF-8 Plain Text
    Duration : 1h 27mn
    Bit rate : 57 bps
    Count of elements : 1003
    Stream size : 37.1 KiB (0%)
    Language : Portuguese
    Default : No
    Forced : No
    Text #5
    ID : 7
    Format : UTF-8
    Codec ID : S_TEXT/UTF8
    Codec ID/Info : UTF-8 Plain Text
    Duration : 1h 27mn
    Bit rate : 60 bps
    Count of elements : 1002
    Stream size : 38.6 KiB (0%)
    Title : European
    Language : Portuguese
    Default : No
    Forced : No
    Text #6
    ID : 8
    Format : UTF-8
    Codec ID : S_TEXT/UTF8
    Codec ID/Info : UTF-8 Plain Text
    Duration : 1h 27mn
    Bit rate : 57 bps
    Count of elements : 1002
    Stream size : 37.0 KiB (0%)
    Language : Spanish
    Default : No
    Forced : No
    Text #7
    ID : 9
    Format : UTF-8
    Codec ID : S_TEXT/UTF8
    Codec ID/Info : UTF-8 Plain Text
    Duration : 1h 27mn
    Bit rate : 52 bps
    Count of elements : 974
    Stream size : 33.9 KiB (0%)
    Language : Polish
    Default : No
    Forced : No
    Text #8
    ID : 10
    Format : UTF-8
    Codec ID : S_TEXT/UTF8
    Codec ID/Info : UTF-8 Plain Text
    Duration : 1h 27mn
    Bit rate : 54 bps
    Count of elements : 1072
    Stream size : 34.7 KiB (0%)
    Language : Turkish
    Default : No
    Forced : No
    Text #9
    ID : 11
    Format : UTF-8
    Codec ID : S_TEXT/UTF8
    Codec ID/Info : UTF-8 Plain Text
    Duration : 1h 27mn
    Bit rate : 53 bps
    Count of elements : 936
    Stream size : 34.4 KiB (0%)
    Language : Norwegian
    Default : No
    Forced : No
    Text #10
    ID : 12
    Format : UTF-8
    Codec ID : S_TEXT/UTF8
    Codec ID/Info : UTF-8 Plain Text
    Duration : 1h 27mn
    Bit rate : 60 bps
    Count of elements : 1001
    Stream size : 38.8 KiB (0%)
    Language : French
    Default : No
    Forced : No
    Text #11
    ID : 13
    Format : UTF-8
    Codec ID : S_TEXT/UTF8
    Codec ID/Info : UTF-8 Plain Text
    Duration : 1h 27mn
    Bit rate : 50 bps
    Count of elements : 902
    Stream size : 32.4 KiB (0%)
    Language : Finnish
    Default : No
    Forced : No
    Text #12
    ID : 14
    Format : UTF-8
    Codec ID : S_TEXT/UTF8
    Codec ID/Info : UTF-8 Plain Text
    Duration : 1h 27mn
    Bit rate : 49 bps
    Count of elements : 904
    Stream size : 32.0 KiB (0%)
    Language : Dutch
    Default : No
    Forced : No


    Скриншоты для ознакомления




    Онлайн видео Основные принципы добра



    Основные принципы добра/The Fundamentals of Caring (2016) WEBRip [H.264/720p-LQ] [EN/EN, ITA, GER, POR, SPA, POL, TUR, NOR, FRE, FIN, DUT Sub]
    загрузка...
    Рейтинг →
     (голосов: 1, оценка 5/5, голосовать можно 1 раз )

    Другие торренты по теме:

  • Гопал Дюбей | Основные принципы устройства электроприводов (2009) [DJVU] скачать через торрент бесплатно
  • Tektronix | Осциллографы. Основные принципы измерений (2010) [PDF] скачать через торрент бесплатно
  • Lynda.com | Основные принципы дизайна логотипа (2013) PCRec [H.264 / 720p]
  • Основные принципы добра / The Fundamentals of Caring (2016) WEB-DLRip [VO]
  • Основные принципы добра / The Fundamentals of Caring (2016)
  • Основные принципы добра / The Fundamentals of Caring (2016) WEB-DL [H.264 / 720p-LQ]


    • Комментарии (0):

      Информация

      Информация

        Посетители, находящиеся в группе Гости, не могут оставлять комментарии в данной новости.

        ↓ Меню




        ↓ Опрос

        Вы добавили сайт в закладки?
        Да
        Нет


        Top 10 за месяц (Фильмы)