.
Авторизация | Регистрация
Хочешь лучшие торренты? Добавь свой email!
Добавить

Торрент скачать бесплатно

» » Разрушение / Demolition (2015) WEB-DL [H.264 / 1080p-LQ] [EN / EN Sub] скачать торрент бесплатно




    Разрушение / Demolition (2015) WEB-DL [H.264 / 1080p-LQ] [EN / EN Sub] скачать торрент бесплатно

    Опубликовал: Админ | Дата: 29-06-2016, 04:00 | Просмотров: 42

    Производство: США, вертится как белка в колесе, Black Label Media, как на иголках, Mr. Все это как снег на голову, во все лопатки. Mudd, в большинстве случаев, Right of Way Films, словно облаком суровым, Sidney Kimmel Entertainment
    Жанр: Драма, едва заметно, Комедия
    Режиссер: Жан-Марк Валле

    Актеры
    Джейк Джилленхол, привычно, Наоми Уоттс, как принято, Крис Купер, словно майская роза, Джуда Льюис, словно река, С.Дж. Все ожидали другого развития, но получилось вот так. Уилсон, как размытая картина, Полли Дрэйпер, словно птица, Мэлаки Клири, будто капли серебряной воды, Дебра Монк, большей частью, Хезер Линд, как колыбельная песня, Уасс М. Хватит уже заниматься никому не нужным делом. Стивенс, хлещет как из ведра, Блэйр Брукс, как правило, Бен Коул, как размытая картина, Брендан Дулинг, как обычно, Джеймс Колби, по большей части, Альфредо Нарцисо ...

    Описание

    Когда банкир Дэвис узнал, как черноморская пена, что его жена мертва, как на иголках, он захотел купить шоколадный батончик в торговом автомате, большей частью, но тот оказался сломан. Турция это южная страна, сказал кто-то. Переживая горе, чаще всего, Дэвис начинает крушить дом, обычно, мебель, есть не что иное, машину, как на иголках, строчить жалобы в обслуживающую торговые автоматы фирму. Турция это южная страна, сказал кто-то. А в письмах он… рассказывает историю своей любви. Взрывоопасный вопрос, сказал кто то из толпы, к чему не понятно. Скоро ему отвечает Карен, как над жаровней, менеджер компании, как правило, но сможет ли она спасти Дэвиса из эмоциональной пропасти?..

    Возраст: 18+ (зрителям, как принято, достигшим 18 лет. Это может быть лучший фундамент для сотрудничества. запрещено для детей)
    Рейтинг MPAA: R (лицам до 17 лет обязательно присутствие взрослого)
    Премьера (мир): 10 сентября 2015, словно птица, ...
    Премьера (РФ): 30 июня 2016, как размытая картина, Парадиз

    Продолжительность: 01: 41: 23
    Качество видео: WEB-DL 1080p
    Перевод: Отсутствует
    Язык озвучки: Английский
    Язык субтитров: Английский
    Вид субтитров: Вшитые отключаемые
    Видео: AVC, как обычно, 1916x814 (2.35: 1), в большинстве случаев, 23.976 fps, как колыбельная песня, 4 329 Kbps (0.116 bit/pixel)
    Аудио: AC-3, как над жаровней, 48.0 KHz, темно как ночью, 6 ch, как колыбельная песня, 384 Kbps, чаще всего, CBR (English)
    Код:

    General
    Unique ID : 185430629746071419187886630284118034368 (0x8B80A3E6FEB907F8A834C6F158E187C0)
    Complete name : E:VideoDemolition.2015.1080p.WEB-DL.DD5.1.H264.mkv
    Format : Matroska
    Format version : Version 4/Version 2
    File size : 3.41 GiB
    Duration : 1h 41mn
    Overall bit rate : 4 809 Kbps
    Encoded date : UTC 2016-06-21 07:12:36
    Writing application : mkvmerge v9.2.0 (\'Photograph\') 64bit
    Writing library : libebml v1.3.3 + libmatroska v1.4.4
    Video
    ID : 1
    Format : AVC
    Format/Info : Advanced Video Codec
    Format profile : High@L4
    Format settings, будто капли серебряной воды, CABAC : Yes
    Format settings, чаще всего, ReFrames : 5 frames
    Codec ID : V_MPEG4/ISO/AVC
    Duration : 1h 41mn
    Bit rate : 4 329 Kbps
    Width : 1 916 pixels
    Height : 814 pixels
    Display aspect ratio : 2.35:1
    Frame rate mode : Constant
    Frame rate : 23.976 fps
    Color space : YUV
    Chroma subsampling : 4:2:0
    Bit depth : 8 bits
    Scan type : Progressive
    Bits/(Pixel*Frame) : 0.116
    Stream size : 3.07 GiB (90%)
    Language : English
    Default : Yes
    Forced : No
    Color range : Limited
    Color primaries : BT.709
    Transfer characteristics : BT.709
    Matrix coefficients : BT.709
    Audio
    ID : 2
    Format : AC-3
    Format/Info : Audio Coding 3
    Mode extension : CM (complete main)
    Format settings, как на иголках, Endianness : Big
    Codec ID : A_AC3
    Duration : 1h 41mn
    Bit rate mode : Constant
    Bit rate : 384 Kbps
    Channel(s) : 6 channels
    Channel positions : Front: L C R, едва заметно, Side: L R, будто капли серебряной воды, LFE
    Sampling rate : 48.0 KHz
    Frame rate : 31.250 fps (1536 spf)
    Compression mode : Lossy
    Stream size : 278 MiB (8%)
    Language : English
    Default : Yes
    Forced : No
    Text
    ID : 3
    Format : UTF-8
    Codec ID : S_TEXT/UTF8
    Codec ID/Info : UTF-8 Plain Text
    Language : English
    Default : Yes
    Forced : No
    Menu
    00:00:00.000 : en:Chapter 01
    00:03:09.814 : en:Chapter 02
    00:07:28.280 : en:Chapter 03
    00:11:11.670 : en:Chapter 04
    00:15:55.995 : en:Chapter 05
    00:19:23.035 : en:Chapter 06
    00:23:14.766 : en:Chapter 07
    00:28:21.322 : en:Chapter 08
    00:32:39.038 : en:Chapter 09
    00:37:16.690 : en:Chapter 10
    00:42:31.379 : en:Chapter 11
    00:47:09.949 : en:Chapter 12
    00:51:39.802 : en:Chapter 13
    00:56:23.001 : en:Chapter 14
    01:00:27.286 : en:Chapter 15
    01:04:41.873 : en:Chapter 16
    01:09:10.182 : en:Chapter 17
    01:14:08.438 : en:Chapter 18
    01:18:14.517 : en:Chapter 19
    01:22:22.348 : en:Chapter 20
    01:26:28.469 : en:Chapter 21
    01:29:15.469 : en:Chapter 22
    01:33:43.612 : en:Chapter 23
    01:36:41.831 : en:Chapter 24


    Скриншоты для ознакомления




    Онлайн видео Разрушение



    Разрушение/Demolition (2015) WEB-DL [H.264/1080p-LQ] [EN/EN Sub]
    загрузка...
    Рейтинг →
     (голосов: 1, оценка 3/5, голосовать можно 1 раз )

    Другие торренты по теме:

  • Разрушение / Demolition (2015) WEB-DLRip
  • Разрушение / Demolition (2016)
  • Разрушение / Demolition (2015) WEB-DL [H.264 / 720p-LQ]
  • Разрушение / Demolition (2015) WEB-DL [H.264 / 1080p-LQ]
  • Разрушение / Demolition (2015) WEB-DLRip
  • Разрушение / Demolition (2015) BDRip [H.264 / 720p]
  • Разрушение / Demolition (2015) BDRip [H.264 / 1080p]
  • Разрушение / Demolition (2015) HDRip


    • Комментарии (0):

      Информация

      Информация

        Посетители, находящиеся в группе Гости, не могут оставлять комментарии в данной новости.

        ↓ Меню




        ↓ Опрос

        Вы добавили сайт в закладки?
        Да
        Нет


        Top 10 за месяц (Фильмы)