.
Авторизация | Регистрация
Хочешь лучшие торренты? Добавь свой email!
Добавить

Торрент скачать бесплатно

» » Падение кондора (1982) WEBRip торрент скачать бесплатно




    Падение кондора (1982) WEBRip торрент скачать бесплатно

    Опубликовал: Админ | Дата: 29-06-2016, 04:00 | Просмотров: 10

    Производство: СССР, Мосфильм
    Жанр: Драма
    Режиссер: Себастьян Аларкон

    Актеры
    Сергей Юрский, Евгений Леонов-Гладышев, Светлана Тома, Григорий Лямпе, Александр Пашутин, Лео Пилпани, Галина Фролова, Константин Титов, Борислав Брондуков, Ээве Киви

    Описание

    События фильма происходят в одной из латиноамериканских стран, в вымышленном фашистском государстве, которым управляет диктатор Рамон Онофре. Прикольно все это наверно придумал Кравчук потратив достаточно времени. Мануэль Ромеро, молодой солдат из охраны высшего руководства, совершает одно предательство за другим и вскоре становится одним из ближайших людей Онофре. Первой жертвой бывшего крестьянина становится друг детства, известный скульптор, выступивший против режима. О таком странном сюжете не догадывалась даже Шакира. Окрыленный первой победой над инакомыслием, Ромеро организовывает карательную экспедицию в родную деревню. Но начинается народная революция, диктатуре Онофре приходит конец, и герой убивает диктатора.

    Возраст: 16+ (зрителям, достигшим 16 лет)
    Продолжительность: 01: 25: 51
    Качество видео: WEBRip
    Видео: DivX 5, 688x512, ~2054 Kbps
    Аудио: MP3, 2 ch, 128 Kbps, CBR
    Код:

    Общее
    Полное имя : G:Падение кондора (1982) WEBRip.avi
    Формат : AVI
    Формат/Информация : Audio Video Interleave
    Размер файла : 1, 31 Гбайт
    Продолжительность : 1 ч. 25 м.
    Общий поток : 2192 Кбит/сек
    Программа кодирования : FairUse Wizard - http://fairusewizard.com
    Библиотека кодирования : The best and REALLY easy backup tool
    Видео
    Идентификатор : 0
    Формат : MPEG-4 Visual
    Параметр BVOP формата : 1
    Параметр QPel формата : Нет
    Параметр GMC формата : Без точки перехода
    Параметр матрицы формата : Default (H.263)
    Режим смешивания : Сжатый битовый поток
    Идентификатор кодека : DX50
    Идентификатор кодека/Подсказка : DivX 5
    Продолжительность : 1 ч. 25 м.
    Битрейт : 2054 Кбит/сек
    Ширина : 688 пикселей
    Высота : 512 пикселей
    Соотношение сторон : 4:3
    Частота кадров : 25, 000 кадров/сек
    Цветовое пространство : YUV
    Субдискретизация насыщенности : 4:2:0
    Битовая глубина : 8 бит
    Тип развёртки : Прогрессивная
    Метод сжатия : С потерями
    Бит/(Пиксели*Кадры) : 0.233
    Размер потока : 1, 23 Гбайт (94%)
    Библиотека кодирования : DivX 5.2.1 (WaffleDay) (UTC 2004-09-08)
    Аудио
    Идентификатор : 1
    Формат : MPEG Audio
    Версия формата : Version 1
    Профиль формата : Layer 3
    Режим : Joint stereo
    Расширение режима : MS Stereo
    Идентификатор кодека : 55
    Идентификатор кодека/Подсказка : MP3
    Продолжительность : 1 ч. 25 м.
    Вид битрейта : Постоянный
    Битрейт : 128 Кбит/сек
    Каналы : 2 канала
    Частота : 48, 0 КГц
    Метод сжатия : С потерями
    Размер потока : 78, 6 Мбайт (6%)
    Выравнивание : Соединение по промежуткам
    Продолжительность промежутка : 40 мс. (1, 00 видеокадр)
    Время предзагрузки промежутка : 504 мс.
    Библиотека кодирования : LAME3.97b
    Настройки программы : -m j -V 4 -q 2 -lowpass 17 -b 128


    Скриншоты для ознакомления




    Падение кондора (1982) WEBRip
    загрузка...
    Рейтинг →
     (голосов: 1, оценка 3/5, голосовать можно 1 раз )

    Другие торренты по теме:

  • Свободное падение / Free Fall (2014) BDRip [1080p] [EN / EN, Sp Sub]
  • Свободное падение / Free Fall (2014) BDRip [720p] [EN / EN, Sp Sub]
  • Михаил Задорнов. Неформат 63 (Падение рубля - путь к ядерной войне) (2014.11.07) WEB-DLRip
  • Крах / Падение / The Fall (2014) HDTVRip [H.264 / 720p-LQ] (Сезон 2, серии 1 из 6) Paradox (обновляемая) скачать через торрент бесплатно
  • Крах / Падение / The Fall (2014) HDTVRip (Сезон 2, серии 1-3 из 6) (Paradox) (обновляемая) скачать через торрент бесплатно
  • Крах / Падение / The Fall (2013) WEB-DLRip (сезон 1, серии 1 из 5) LostFilm (обновляемая) скачать через торрент бесплатно
  • Крах / Падение / The Fall (2014) WEB-DLRip (сезон 2, серии 1 из 6) LostFilm (обновляемая)
  • Крах / Падение / The Fall (2013) BDRip [720p] (сезон 1, серии 1-5 из 5) [Jaskier]


    • Комментарии (0):

      Информация

      Информация

        Посетители, находящиеся в группе Гости, не могут оставлять комментарии в данной новости.

        ↓ Меню




        ↓ Опрос

        Вы добавили сайт в закладки?
        Да
        Нет


        Top 10 за месяц (Фильмы)