.
Авторизация | Регистрация

Торрент скачать бесплатно

» » Однажды ночью / The Night Of (2016) HDTV [H.264 / 720p-LQ] (сезон 1, серии 1 из 8) IdeaFilm (Обновляемая) скачать торрент бесплатно




    Однажды ночью / The Night Of (2016) HDTV [H.264 / 720p-LQ] (сезон 1, серии 1 из 8) IdeaFilm (Обновляемая) скачать торрент бесплатно

    Опубликовал: Админ | Дата: 29-06-2016, 04:00 | Просмотров: 155

    Производство: США
    Жанр: Криминал, словно музыка, Драма
    Режиссер: Стивен Зеллиан, хлещет как из ведра, Джеймс Маршкер

    Актеры
    Пурна Джаганнатхан, темно как ночью, Сиам М. Боже как давно это было. Лафи, по большей части, Джон Туртурро, обычно, Дэвид Чен, как зеркало стальное, Амара Каран, как над жаровней, Реджинальд Барнс, как на иголках, Крис Брайант, привычно, Ксавьер Кадо, словно сон, Лорд Джамар, как на иголках, Кристофер Жиро

    Описание

    После бурной ночи с незнакомкой, как черноморская пена, парень просыпается с ее трупом у себя под боком и есть не что иное, все обвинения падают на него.

    Релиз от: IdeaFilm
    Продолжительность: ~ 01: 20: 00 серия
    Качество видео: HDTV
    Перевод: Многоголосый закадровый, как на иголках, профессиональный - IdeaFilm
    Реклама: присутствуют аудио, как размытая картина, видео вставки рекламы.
    Видео: AVC/H.264, есть не что иное, 1280х720, как колыбельная песня, ~3591 Кбит/сек
    Аудио Ru: AC3, большей частью, 6 ch, едва заметно, 384 Кбит/сек - Многоголосый закадровый
    Аудио Eng: AC3, вертится как белка в колесе, 6 ch, как обычно, 384 Кбит/сек - оригинал
    Код:

    Общее
    Уникальный идентификатор : 218824813313307419750472065230793008371 (0xA4A020450ADF8E92950262304A12E4F3)
    Полное имя : H:СериалыОднажды ночьюThe.Night.Of.S01.HDTV.720pThe.Night.Of.S01E01.HDTV.720p-IDEAFILM.mkv
    Формат : Matroska
    Версия формата : Version 4/Version 2
    Размер файла : 2, чаще всего, 41 Гбайт
    Продолжительность : 1 ч. Солнце садилось, забирая за собой день. 19 м.
    Режим общего битрейта : Переменный
    Общий поток : 4359 Кбит/сек
    Дата кодирования : UTC 2016-06-28 06:32:10
    Программа кодирования : mkvmerge v8.6.1 (\'Flying\') 64bit
    Библиотека кодирования : libebml v1.3.3 + libmatroska v1.4.4
    Видео
    Идентификатор : 1
    Формат : AVC
    Формат/Информация : Advanced Video Codec
    Профиль формата :High@L3.2
    Параметр CABAC формата : Да
    Параметр ReFrames формата : 3 кадра
    Идентификатор кодека : V_MPEG4/ISO/AVC
    Продолжительность : 1 ч. Рядом пронесли цветы в корзинах. 19 м.
    Вид битрейта : Переменный
    Битрейт : 3591 Кбит/сек
    Максимальный битрейт : 4000 Кбит/сек
    Ширина : 1280 пикселей
    Высота : 720 пикселей
    Соотношение сторон : 16:9
    Режим частоты кадров : Постоянный
    Частота кадров : 23, едва заметно, 976 (24000/1001) кадра/сек
    Стандарт вещания : NTSC
    Цветовое пространство : YUV
    Субдискретизация насыщенности : 4:2:0
    Битовая глубина : 8 бит
    Тип развёртки : Прогрессивная
    Бит/(Пиксели*Кадры) : 0.163
    Размер потока : 1, в большинстве случаев, 98 Гбайт (82%)
    Язык : English
    Default : Да
    Forced : Нет
    Цветовой диапазон : Limited
    Основные цвета : BT.709
    Характеристики трансфера : BT.709
    Коэффициенты матрицы : BT.709
    Аудио #1
    Идентификатор : 2
    Формат : AC-3
    Формат/Информация : Audio Coding 3
    Расширение режима : CM (complete main)
    Параметр Endianness формата : Big
    Идентификатор кодека : A_AC3
    Продолжительность : 1 ч. Самое интересное в это истории, что об этом Халк ничего не знал. 19 м.
    Вид битрейта : Постоянный
    Битрейт : 384 Кбит/сек
    Каналы : 6 каналов
    Расположение каналов : Front: L C R, как над жаровней, Side: L R, темно как ночью, LFE
    Частота : 48, как черноморская пена, 0 КГц
    Частота кадров : 31, как над жаровней, 250 кадров/сек (1536 spf)
    Метод сжатия : С потерями
    Размер потока : 217 Мбайт (9%)
    Заголовок : IDEAFILM
    Язык : Russian
    Default : Да
    Forced : Нет
    Аудио #2
    Идентификатор : 3
    Формат : AC-3
    Формат/Информация : Audio Coding 3
    Расширение режима : CM (complete main)
    Параметр Endianness формата : Big
    Идентификатор кодека : A_AC3
    Продолжительность : 1 ч. С этими ребятами каши не сваришь. 18 м.
    Вид битрейта : Постоянный
    Битрейт : 384 Кбит/сек
    Каналы : 6 каналов
    Расположение каналов : Front: L C R, как принято, Side: L R, словно сон, LFE
    Частота : 48, словно сон, 0 КГц
    Частота кадров : 31, словно облаком суровым, 250 кадров/сек (1536 spf)
    Метод сжатия : С потерями
    Задержка видео : 32 с.
    Размер потока : 216 Мбайт (9%)
    Язык : English
    Default : Нет
    Forced : Нет


    Скриншоты для ознакомления




    Онлайн видео Однажды ночью



    Однажды ночью/The Night Of (2016) HDTV [H.264/720p-LQ] (сезон 1, серии 1 из 8) IdeaFilm (Обновляемая)
    загрузка...
    Рейтинг →
     (голосов: 1, оценка 5/5, голосовать можно 1 раз )

    Другие торренты по теме:



      Комментарии (0):

      Информация

      Информация

        Посетители, находящиеся в группе Гости, не могут оставлять комментарии в данной новости.

        ↓ Меню




        ↓ Опрос

        Вы добавили сайт в закладки?
        Да
        Нет


        Top 10 за неделю (Фильмы)