.
Авторизация | Регистрация
Хочешь лучшие торренты? Добавь свой email!
Добавить

Торрент скачать бесплатно

» » Однажды ночью / The Night Of (2016) HDTV [H.264 / 720p-LQ] (сезон 1, серии 1 из 8) IdeaFilm (Обновляемая) торрент скачать бесплатно




    Однажды ночью / The Night Of (2016) HDTV [H.264 / 720p-LQ] (сезон 1, серии 1 из 8) IdeaFilm (Обновляемая) торрент скачать бесплатно

    Опубликовал: Админ | Дата: 29-06-2016, 04:00 | Просмотров: 155

    Производство: США
    Жанр: Криминал, Драма
    Режиссер: Стивен Зеллиан, Джеймс Маршкер

    Актеры
    Пурна Джаганнатхан, Сиам М. Лафи, Джон Туртурро, Дэвид Чен, Амара Каран, Реджинальд Барнс, Крис Брайант, Ксавьер Кадо, Лорд Джамар, Кристофер Жиро

    Описание

    После бурной ночи с незнакомкой, парень просыпается с ее трупом у себя под боком и все обвинения падают на него.

    Релиз от: IdeaFilm
    Продолжительность: ~ 01: 20: 00 серия
    Качество видео: HDTV
    Перевод: Многоголосый закадровый, профессиональный - IdeaFilm
    Реклама: присутствуют аудио, видео вставки рекламы.
    Видео: AVC/H.264, 1280х720, ~3591 Кбит/сек
    Аудио Ru: AC3, 6 ch, 384 Кбит/сек - Многоголосый закадровый
    Аудио Eng: AC3, 6 ch, 384 Кбит/сек - оригинал
    Код:

    Общее
    Уникальный идентификатор : 218824813313307419750472065230793008371 (0xA4A020450ADF8E92950262304A12E4F3)
    Полное имя : H:СериалыОднажды ночьюThe.Night.Of.S01.HDTV.720pThe.Night.Of.S01E01.HDTV.720p-IDEAFILM.mkv
    Формат : Matroska
    Версия формата : Version 4/Version 2
    Размер файла : 2, 41 Гбайт
    Продолжительность : 1 ч. 19 м.
    Режим общего битрейта : Переменный
    Общий поток : 4359 Кбит/сек
    Дата кодирования : UTC 2016-06-28 06:32:10
    Программа кодирования : mkvmerge v8.6.1 (\'Flying\') 64bit
    Библиотека кодирования : libebml v1.3.3 + libmatroska v1.4.4
    Видео
    Идентификатор : 1
    Формат : AVC
    Формат/Информация : Advanced Video Codec
    Профиль формата :High@L3.2
    Параметр CABAC формата : Да
    Параметр ReFrames формата : 3 кадра
    Идентификатор кодека : V_MPEG4/ISO/AVC
    Продолжительность : 1 ч. 19 м.
    Вид битрейта : Переменный
    Битрейт : 3591 Кбит/сек
    Максимальный битрейт : 4000 Кбит/сек
    Ширина : 1280 пикселей
    Высота : 720 пикселей
    Соотношение сторон : 16:9
    Режим частоты кадров : Постоянный
    Частота кадров : 23, 976 (24000/1001) кадра/сек
    Стандарт вещания : NTSC
    Цветовое пространство : YUV
    Субдискретизация насыщенности : 4:2:0
    Битовая глубина : 8 бит
    Тип развёртки : Прогрессивная
    Бит/(Пиксели*Кадры) : 0.163
    Размер потока : 1, 98 Гбайт (82%)
    Язык : English
    Default : Да
    Forced : Нет
    Цветовой диапазон : Limited
    Основные цвета : BT.709
    Характеристики трансфера : BT.709
    Коэффициенты матрицы : BT.709
    Аудио #1
    Идентификатор : 2
    Формат : AC-3
    Формат/Информация : Audio Coding 3
    Расширение режима : CM (complete main)
    Параметр Endianness формата : Big
    Идентификатор кодека : A_AC3
    Продолжительность : 1 ч. Самое интересное в это истории, что об этом Халк ничего не знал. 19 м.
    Вид битрейта : Постоянный
    Битрейт : 384 Кбит/сек
    Каналы : 6 каналов
    Расположение каналов : Front: L C R, Side: L R, LFE
    Частота : 48, 0 КГц
    Частота кадров : 31, 250 кадров/сек (1536 spf)
    Метод сжатия : С потерями
    Размер потока : 217 Мбайт (9%)
    Заголовок : IDEAFILM
    Язык : Russian
    Default : Да
    Forced : Нет
    Аудио #2
    Идентификатор : 3
    Формат : AC-3
    Формат/Информация : Audio Coding 3
    Расширение режима : CM (complete main)
    Параметр Endianness формата : Big
    Идентификатор кодека : A_AC3
    Продолжительность : 1 ч. 18 м.
    Вид битрейта : Постоянный
    Битрейт : 384 Кбит/сек
    Каналы : 6 каналов
    Расположение каналов : Front: L C R, Side: L R, LFE
    Частота : 48, 0 КГц
    Частота кадров : 31, 250 кадров/сек (1536 spf)
    Метод сжатия : С потерями
    Задержка видео : 32 с.
    Размер потока : 216 Мбайт (9%)
    Язык : English
    Default : Нет
    Forced : Нет


    Скриншоты для ознакомления




    Онлайн видео Однажды ночью



    Однажды ночью/The Night Of (2016) HDTV [H.264/720p-LQ] (сезон 1, серии 1 из 8) IdeaFilm (Обновляемая)
    загрузка...
    Рейтинг →
     (голосов: 1, оценка 5/5, голосовать можно 1 раз )

    Другие торренты по теме:

  • Однажды ночью / Той ночью / The Night Of (2016) HDTVRip (сезон 1, серии 1 из 8) NewStudio (обновляемая)
  • Однажды ночью / Той ночью / The Night Of (2016) HDTVRip [H.264 / 720p-LQ] (сезон 1, серии 1 из 8) NewStudio (обновляемая)
  • Однажды ночью / Той ночью / The Night Of (2016) HDTVRip [H.264 / 1080p-LQ] (сезон 1, серии 1 из 8) NewStudio (обновляемая)
  • Однажды ночью / Той ночью / The Night Of (2016) HDTVRip [H.264 / 720p-LQ] (сезон 1, серии 1 из 8) BaibaKo (обновляемая)
  • Однажды ночью / Той ночью / The Night Of (2016) HDTVRip [H.264 / 720p-LQ] (сезон 1, серии 1-2 из 8) Novamedia (обновляемая)
  • Однажды ночью / Той ночью / The Night Of (2016) HDTVRip (сезон 1, серии 1-3 из 8) Novamedia (обновляемая)
  • Однажды ночью / The Night Of (2016) HDTVRip [H.264 / 720p-LQ] (сезон 1, серии 1 из 8) Coldfilm (Обновляемая)
  • Наталья Косухина | Однажды тихой темной ночью... (2016) [MP3]


    • Комментарии (0):

      Информация

      Информация

        Посетители, находящиеся в группе Гости, не могут оставлять комментарии в данной новости.

        ↓ Меню




        ↓ Опрос

        Вы добавили сайт в закладки?
        Да
        Нет


        Top 10 за месяц (Фильмы)