.
Авторизация | Регистрация
Хочешь лучшие торренты? Добавь свой email!
Добавить

Торрент скачать бесплатно

» » Вижу-знаю (2016) SATRip [H.264] (1-6 серии из 24) (Обновляемая) торрент скачать бесплатно




    Вижу-знаю (2016) SATRip [H.264] (1-6 серии из 24) (Обновляемая) торрент скачать бесплатно

    Опубликовал: Админ | Дата: 29-06-2016, 04:00 | Просмотров: 11

    Производство: Россия/Киностудия Медведь
    Жанр: Детектив, Криминал
    Режиссер: Эльдар Салаватов, Алексей Луканев

    Актеры
    Анна Слю, Сергей Горобченко, Кирилл Ковбас, Руслан Ягудин, Максим Щёголев, Алексей Викторов, Сергей Шнырёв, Александр Хованский , Денис Дружинин, Ольга Михайлова , Александр Курицын, Виктор Фалалеев, Дмитрий Янышевский, Алексей Черничкин, Александр Ильин , Михаил Куряев, Петр Рабчевский, Екатерина Буйлова, Анна Галлямова, Юлия Юрченко, Артем Манукян, Вадим Ситников, Роман Синицын, Елена Полякова

    Описание

    Оперативные сотрудники одного из отделов полиции ежедневно идут по следу опасных преступников. О таком странном сюжете не догадывалась даже Настя Каменских. Опера сталкиваются с жестокими бандитами и раскрывают запутанные комбинации, придуманные уголовниками для сокрытия преступлений. Волк в овечьей шкуре, сказал кто то из толпы, к чему не понятно. Но каждый из полицейских отдела знает, что рядом всегда надежное плечо коллеги.

    Возраст: 16+ (зрителям, достигшим 16 лет)
    Дата российской премьеры: 27 июня 2016 (НТВ)
    Релиз от: ExKinoRay
    Продолжительность: ~00: 44: 00 серия
    Качество видео: SATRip
    Видео: AVC/H.264, 720х400, ~1550 Кбит/сек
    Аудио: AC3, 192 Кбит/сек, 2 канала, CBR
    Код:

    Общее
    Уникальный идентификатор : 231056693110663135695738039399191595788 (0xADD3E6815ABB4316B2E5025718EACB0C)
    Полное имя : D:Вижу-знаю1 серия_Вижу-знаю_rip by_Aleksan55.mkv
    Формат : Matroska
    Версия формата : Version 2
    Размер файла : 551 Мбайт
    Продолжительность : 44 м.
    Общий поток : 1744 Кбит/сек
    Дата кодирования : UTC 2016-06-27 12:48:31
    Программа кодирования : mkvmerge v7.8.0 (\'River Man\') 32bit built on Apr 3 2015 12:11:22
    Библиотека кодирования : libebml v1.3.1 + libmatroska v1.4.2
    Видео
    Идентификатор : 1
    Формат : AVC
    Формат/Информация : Advanced Video Codec
    Профиль формата :High@L4.1
    Параметр CABAC формата : Да
    Параметр ReFrames формата : 9 кадров
    Идентификатор кодека : V_MPEG4/ISO/AVC
    Продолжительность : 44 м.
    Битрейт : 1550 Кбит/сек
    Ширина : 720 пикселей
    Высота : 400 пикселей
    Соотношение сторон : 16:9
    Режим частоты кадров : Постоянный
    Частота кадров : 25, 000 кадров/сек
    Цветовое пространство : YUV
    Субдискретизация насыщенности : 4:2:0
    Битовая глубина : 8 бит
    Тип развёртки : Прогрессивная
    Бит/(Пиксели*Кадры) : 0.215
    Размер потока : 479 Мбайт (87%)
    Библиотека кодирования : x264 core 146 r2538 121396c
    Настройки программы : cabac=1/ref=9/deblock=1:0:0/analyse=0x3:0x113/me=umh/subme=9/psy=1/psy_rd=1.00:0.20/mixed_ref=0/me_range=16/chroma_me=1/trellis=2/8x8dct=1/cqm=0/deadzone=21, 11/fast_pskip=1/chroma_qp_offset=-3/threads=3/lookahead_threads=3/sliced_threads=0/nr=0/decimate=1/interlaced=0/bluray_compat=0/constrained_intra=0/bframes=9/b_pyramid=2/b_adapt=1/b_bias=0/direct=3/weightb=1/open_gop=0/weightp=2/keyint=250/keyint_min=25/scenecut=40/intra_refresh=0/rc_lookahead=40/rc=2pass/mbtree=1/bitrate=1550/ratetol=1.0/qcomp=0.60/qpmin=0/qpmax=69/qpstep=4/cplxblur=20.0/qblur=0.5/ip_ratio=1.40/aq=1:1.20
    Default : Да
    Forced : Нет
    Цветовой диапазон : Limited
    Основные цвета : BT.601 PAL
    Характеристики трансфера : BT.470 System B, BT.470 System G
    Коэффициенты матрицы : BT.601
    Аудио
    Идентификатор : 2
    Формат : AC-3
    Формат/Информация : Audio Coding 3
    Расширение режима : CM (complete main)
    Параметр Endianness формата : Big
    Идентификатор кодека : A_AC3
    Продолжительность : 44 м.
    Вид битрейта : Постоянный
    Битрейт : 192 Кбит/сек
    Каналы : 2 канала
    Расположение каналов : Front: L R
    Частота : 48, 0 КГц
    Метод сжатия : С потерями
    Размер потока : 60, 6 Мбайт (11%)
    Default : Да
    Forced : Нет


    Скриншоты для ознакомления




    Онлайн видео Вижу



    Вижу-знаю (2016) SATRip [H.264] (1-6 серии из 24) (Обновляемая)
    загрузка...
    Рейтинг →
     (голосов: 1, оценка 4/5, голосовать можно 1 раз )

    Другие торренты по теме:

  • Вижу-знаю (2016) HDTVRip (серии 1-24 из 24)


    • Комментарии (0):

      Информация

      Информация

        Посетители, находящиеся в группе Гости, не могут оставлять комментарии в данной новости.

        ↓ Меню




        ↓ Опрос

        Вы добавили сайт в закладки?
        Да
        Нет


        Top 10 за месяц (Фильмы)