.
Авторизация | Регистрация
Хочешь лучшие торренты? Добавь свой email!
Добавить

Торрент скачать бесплатно

» » Убийство первой степени / Murder in the First (2016) WEB-DL [H.264 / 1080p-LQ] (сезон 3, серии 1 из 10) BaibaKo (Обновляемая) торрент скачать бесплатно




    Убийство первой степени / Murder in the First (2016) WEB-DL [H.264 / 1080p-LQ] (сезон 3, серии 1 из 10) BaibaKo (Обновляемая) торрент скачать бесплатно

    Опубликовал: Админ | Дата: 29-06-2016, 04:00 | Просмотров: 18

    Производство: США
    Жанр: Детектив, Криминал, Драма
    Режиссер: Джесси Бокко, Эллисон Андерс, Реджинальд Хадлин

    Актеры
    Иэн Энтони Дэйл, Карри Грэм, Кэтлин Робертсон, Том Фелтон, Тэй Диггз, Мими Кирклэнд, Джейми МакШейн, Марисса Армихо, Брианна Дэвис, Камилль Бальзамо, Питер Онорати

    Описание

    В центре сюжета сериала, действие которого разворачивается в Сан-Франциско, находятся детективы Терри Сигрейв и Хилди Маллиган, которые расследуют обычное убийство наркомана, однако в ходе развития дела выходят на генерального директора компании по разработке передовых технологий Эрика Бланта.

    Релиз от: BaibaKo
    Продолжительность: ~00: 43: 00 серия
    Качество видео: WEB-DL
    Перевод: Многоголосый закадровый, профессиональный - BaibaKo
    Автор перевода: Никита Коваль и Татьяна Михеева
    Озвучка: Ольга Мотрич, Олекса Мельник, Артемий Мирон и Сергей Корчак
    Реклама: присутствуют аудио, видео вставки рекламы.
    Видео: AVC/H.264, 1920x1080, ~4965 Кбит/сек
    Аудио Ru: AC3, 6 ch, 384 Кбит/сек - Многоголосый закадровый
    Аудио Eng: AC3, 6 ch, 384 Кбит/сек - оригинал
    Код:

    Общее
    Уникальный идентификатор : 192432183244498844280138820859146864029 (0x90C51724495D05C38C39CD531BBD059D)
    Полное имя : H:СериалыУбийство первой степени 3 сезон любимого сериалаMurder.in.the.First.s03.HD1080p.WEB-DL.Rus.Eng.BaibaKoMurder.in.the.First.s03e01.HD1080p.WEB-DL.Rus.Eng.BaibaKo.tv.mkv
    Формат : Matroska
    Версия формата : Version 4/Version 2
    Размер файла : 1, 70 Гбайт
    Продолжительность : 42 м.
    Общий поток : 5735 Кбит/сек
    Дата кодирования : UTC 2016-06-28 13:43:01
    Программа кодирования : mkvmerge v9.2.0 (\'Photograph\') 64bit
    Библиотека кодирования : libebml v1.3.3 + libmatroska v1.4.4
    Видео
    Идентификатор : 1
    Формат : AVC
    Формат/Информация : Advanced Video Codec
    Профиль формата : High@L4
    Параметр CABAC формата : Да
    Параметр ReFrames формата : 4 кадра
    Идентификатор кодека : V_MPEG4/ISO/AVC
    Продолжительность : 42 м.
    Битрейт : 4965 Кбит/сек
    Ширина : 1920 пикселей
    Высота : 1080 пикселей
    Соотношение сторон : 16:9
    Режим частоты кадров : Постоянный
    Частота кадров : 23, 976 (24000/1001) кадра/сек
    Цветовое пространство : YUV
    Субдискретизация насыщенности : 4:2:0
    Битовая глубина : 8 бит
    Тип развёртки : Прогрессивная
    Бит/(Пиксели*Кадры) : 0.100
    Размер потока : 1, 47 Гбайт (87%)
    Библиотека кодирования : x264 core 148 r2692 64f4e24
    Настройки программы : cabac=1/ref=3/deblock=1:0:0/analyse=0x3:0x113/me=hex/subme=7/psy=1/psy_rd=1.00:0.00/mixed_ref=1/me_range=16/chroma_me=1/trellis=1/8x8dct=1/cqm=0/deadzone=21, 11/fast_pskip=1/chroma_qp_offset=-2/threads=12/lookahead_threads=2/sliced_threads=0/nr=0/decimate=1/interlaced=0/bluray_compat=0/constrained_intra=0/bframes=3/b_pyramid=2/b_adapt=1/b_bias=0/direct=1/weightb=1/open_gop=0/weightp=2/keyint=240/keyint_min=23/scenecut=40/intra_refresh=0/rc_lookahead=40/rc=crf/mbtree=1/crf=18.0/qcomp=0.60/qpmin=0/qpmax=69/qpstep=4/ip_ratio=1.40/aq=1:1.00
    Default : Нет
    Forced : Нет
    Аудио #1
    Идентификатор : 2
    Формат : AC-3
    Формат/Информация : Audio Coding 3
    Расширение режима : CM (complete main)
    Параметр Endianness формата : Big
    Идентификатор кодека : A_AC3
    Продолжительность : 42 м.
    Вид битрейта : Постоянный
    Битрейт : 384 Кбит/сек
    Каналы : 6 каналов
    Расположение каналов : Front: L C R, Side: L R, LFE
    Частота : 48, 0 КГц
    Частота кадров : 31, 250 кадров/сек (1536 spf)
    Метод сжатия : С потерями
    Размер потока : 116 Мбайт (7%)
    Язык : Russian
    Default : Да
    Forced : Нет
    Аудио #2
    Идентификатор : 3
    Формат : AC-3
    Формат/Информация : Audio Coding 3
    Расширение режима : CM (complete main)
    Параметр Endianness формата : Big
    Идентификатор кодека : A_AC3
    Продолжительность : 42 м.
    Вид битрейта : Постоянный
    Битрейт : 384 Кбит/сек
    Каналы : 6 каналов
    Расположение каналов : Front: L C R, Side: L R, LFE
    Частота : 48, 0 КГц
    Частота кадров : 31, 250 кадров/сек (1536 spf)
    Метод сжатия : С потерями
    Размер потока : 116 Мбайт (7%)
    Язык : English
    Default : Нет
    Forced : Нет


    Скриншоты для ознакомления




    Онлайн видео Убийство первой степени



    Убийство первой степени/Murder in the First (2016) WEB-DL [H.264/1080p-LQ] (сезон 3, серии 1 из 10) BaibaKo (Обновляемая)
    загрузка...
    Рейтинг →
     (голосов: 1, оценка 5/5, голосовать можно 1 раз )

    Другие торренты по теме:

  • Убийство первой степени / Murder in the First (2015) HDTVRip (сезон 2, серии 1 из 10) OMSKBIRD records (обновляемая) скачать через торрент бесплатно
  • Убийство первой степени / Murder in the First (2015) HDTVRip [H.264 / 1080p-LQ] (сезон 2, серии 1 из 10) OMSKBIRD records (обновляемая) скачать через торрент бесплатно
  • Убийство первой степени / Murder in the First (2015) WEB-DL [H.264 / 720p-LQ](сезон 2, серии 1 из 10) BaibaKo (обновляемая) скачать через торрент бесплатно
  • Убийство первой степени / Murder in the First (2015) WEB-DLRip (сезон 2, серии 1 из 10) BaibaKo (обновляемая) скачать через торрент бесплатно
  • Убийство первой степени / Murder in the First (1995) BDRip [H.264 / 720p] скачать через торрент бесплатно
  • Убийство первой степени / Murder in the First (1995) BDRip [H.264 / 1080p] скачать через торрент бесплатно
  • Убийство первой степени / Murder in the First (2016) HDTV [H.264 / 720p-LQ] (сезон 3, серии 1 из 10) Coldfilm (Обновляемая)
  • Убийство первой степени / Murder in the First (2016) HDTVRip (сезон 3, серии 1 из 12) OMSKBIRD records (обновляемая)


    • Комментарии (0):

      Информация

      Информация

        Посетители, находящиеся в группе Гости, не могут оставлять комментарии в данной новости.

        ↓ Меню




        ↓ Опрос

        Вы добавили сайт в закладки?
        Да
        Нет


        Top 10 за месяц (Фильмы)