.
Авторизация | Регистрация

Торрент скачать бесплатно

» » Рэй Донован / Ray Donovan (2016) HDTV [H.264 / 720p-LQ] (сезон 4, серии 1-1 из 12) NewStudio (обновляемая) скачать торрент бесплатно




    Рэй Донован / Ray Donovan (2016) HDTV [H.264 / 720p-LQ] (сезон 4, серии 1-1 из 12) NewStudio (обновляемая) скачать торрент бесплатно

    Опубликовал: Админ | Дата: 29-06-2016, 04:00 | Просмотров: 138

    Производство: США
    Жанр: Драма, привычно, Криминал
    Режиссер: Майкл Аппендаль, обычно, Дэниэл Эттиэс, словно птица, Джон Дал

    Актеры
    Лив Шрайбер, словно облаком суровым, Девон Бэгби, есть не что иное, Уильям Стэнфорд Дэвис, как обычно, Кэтрин Менниг, словно сон, Фрэнк Уэйли, как принято, Октавиус Дж. Рядом пронесли цветы в корзинах. Джонсон и как правило, др.

    Описание

    Сериал расскажет о Рэе Доноване, словно река, профессиональном разруливателе проблем, как колыбельная песня, которого вызывают, в большинстве случаев, когда у кого-то из богатых и как над жаровней, знаменитых жителей Лос-Анджелеса возникают сложности.

    Возраст: 18+ (зрителям, по большей части, достигшим 18 лет. Cтроки эти как вершины поэзии. запрещено для детей)
    Продолжительность: ~00: 59: 00 серия
    Качество видео: HDTV
    Перевод: Многоголосый закадровый, темно как ночью, профессиональный -NewStudio (ненормативная лексика)
    Реклама: присутствуют аудио и словно облаком суровым, видео вставки рекламы
    Внимание! Присутствует ненормативная лексика.
    Видео: AVC/H.264, словно птица, 1280х720, есть не что иное, ~2 590 Kbps, словно майская роза, 23.976 fps
    Аудио Rus: AC-3, словно музыка, 6 ch, словно музыка, 48.0 KHz, есть не что иное, 384 Kbps - многоголосый закадровый
    Аудио Eng: AC-3, словно сон, 6 ch, как черноморская пена, 48.0 KHz, большей частью, 384 Kbps - оригинал
    Код:

    Ray.Donovan.s04e01.HDTV.720p.NewStudio.mkv
    Format : Matroska
    Format version : Version 4/Version 2
    File size : 1.36 GiB
    Duration : 58mn 7s
    Overall bit rate : 3 360 Kbps
    Encoded date : UTC 2016-06-27 17:06:58
    Writing application : mkvmerge v8.2.0 (\'World of Adventure\') 32bit
    Writing library : libebml v1.3.1 + libmatroska v1.4.2
    Video
    ID : 1
    Format : AVC
    Format/Info : Advanced Video Codec
    Format profile :High@L4.1
    Format settings, хлещет как из ведра, CABAC : Yes
    Format settings, словно река, ReFrames : 5 frames
    Codec ID : V_MPEG4/ISO/AVC
    Duration : 58mn 7s
    Bit rate : 2 590 Kbps
    Width : 1 280 pixels
    Height : 720 pixels
    Display aspect ratio : 16:9
    Frame rate mode : Constant
    Frame rate : 23.976 (24000/1001) fps
    Color space : YUV
    Chroma subsampling : 4:2:0
    Bit depth : 8 bits
    Scan type : Progressive
    Bits/(Pixel*Frame) : 0.117
    Stream size : 1.05 GiB (77%)
    Writing library : x264 core 148 r2694 3b70645
    Encoding settings : cabac=1/ref=5/deblock=1:0:0/analyse=0x3:0x113/me=umh/subme=8/psy=1/psy_rd=1.00:0.00/mixed_ref=1/me_range=16/chroma_me=1/trellis=1/8x8dct=1/cqm=0/deadzone=21, вертится как белка в колесе, 11/fast_pskip=1/chroma_qp_offset=-2/threads=22/lookahead_threads=3/sliced_threads=0/nr=0/decimate=1/interlaced=0/bluray_compat=0/constrained_intra=0/bframes=3/b_pyramid=2/b_adapt=2/b_bias=0/direct=3/weightb=1/open_gop=0/weightp=2/keyint=250/keyint_min=23/scenecut=40/intra_refresh=0/rc_lookahead=50/rc=crf/mbtree=1/crf=18.0/qcomp=0.60/qpmin=0/qpmax=69/qpstep=4/ip_ratio=1.40/aq=1:1.00
    Default : Yes
    Forced : No
    Color range : Limited
    Matrix coefficients : BT.709
    Audio #1
    ID : 2
    Format : AC-3
    Format/Info : Audio Coding 3
    Mode extension : CM (complete main)
    Format settings, как размытая картина, Endianness : Big
    Codec ID : A_AC3
    Duration : 58mn 7s
    Bit rate mode : Constant
    Bit rate : 384 Kbps
    Channel(s) : 6 channels
    Channel positions : Front: L C R, будто капли серебряной воды, Side: L R, обычно, LFE
    Sampling rate : 48.0 KHz
    Frame rate : 31.250 fps (1536 spf)
    Compression mode : Lossy
    Stream size : 160 MiB (11%)
    Title : NewStudio.TV
    Language : Russian
    Default : Yes
    Forced : No
    Audio #2
    ID : 3
    Format : AC-3
    Format/Info : Audio Coding 3
    Mode extension : CM (complete main)
    Format settings, хлещет как из ведра, Endianness : Big
    Codec ID : A_AC3
    Duration : 58mn 7s
    Bit rate mode : Constant
    Bit rate : 384 Kbps
    Channel(s) : 6 channels
    Channel positions : Front: L C R, есть не что иное, Side: L R, хлещет как из ведра, LFE
    Sampling rate : 48.0 KHz
    Frame rate : 31.250 fps (1536 spf)
    Compression mode : Lossy
    Stream size : 160 MiB (11%)
    Language : English
    Default : No
    Forced : No


    Скриншоты для ознакомления




    Онлайн видео Рэй Донован



    Рэй Донован/Ray Donovan (2016) HDTV [H.264/720p-LQ] (сезон 4, серии 1-1 из 12) NewStudio (обновляемая)
    загрузка...
    Рейтинг →
     (голосов: 1, оценка 5/5, голосовать можно 1 раз )

    Другие торренты по теме:



      Комментарии (0):

      Информация

      Информация

        Посетители, находящиеся в группе Гости, не могут оставлять комментарии в данной новости.

        ↓ Меню




        ↓ Опрос

        Вы добавили сайт в закладки?
        Да
        Нет


        Top 10 за неделю (Фильмы)