.
Авторизация | Регистрация
Хочешь лучшие торренты? Добавь свой email!
Добавить

Торрент скачать бесплатно

» » Слово на букву А / The A Word (2016) HDTV [H.264 / 1080p-LQ] (сезон 1, серии 1-1 из 6) NewStudio (обновляемая) торрент скачать бесплатно




    Слово на букву А / The A Word (2016) HDTV [H.264 / 1080p-LQ] (сезон 1, серии 1-1 из 6) NewStudio (обновляемая) торрент скачать бесплатно

    Опубликовал: Админ | Дата: 29-06-2016, 04:00 | Просмотров: 10

    Производство: Великобритания
    Жанр: Драма
    Режиссер: Питер Каттанео, Доминик Леклерк, Сьюзэн Талли

    Актеры
    Морвен Кристи, Ли Инглби, Томми Грабик, Адам Виттек, Эбби Форд, Юлия Крынке, Грег МакХью, Винетт Робинсон, Макс Венто, Молли Райт, Кристофер Экклстон, Пуки Куэснел, Джордж Бухари, Дэниэл Серкера, Леон Харроп, Мэтт Гринвуд, Томас Грэгори, Джоэнна Бонд, Крэйг Келли, Мишель Тейт и др.

    Описание

    Казалось бы, что семейство Хьюзов - обычная семейка, которая живет обычной жизнью. Главные герои отлично ладят, хотя порой ссорятся, конфликтуют, что-то не могут поделить и так далее. Самое интересное в это истории, что об этом Потап ничего не знал. Однако кто бы мог подумать, что мир этой семьи может перевернуться в одночасье. У самого младшего ребенка в семье врачи обнаруживают аутизм. Теперь близкие думают лишь о том, как помочь ребенку. Жизнь семьи кардинально меняется. Теперь приходится соблюдать некоторые правила поведения и не делать поспешных выводов. Взгляды на жизнь у родителей тоже изменились. Теперь мир для них окрашен совершенно в иной цвет.

    Дата мировой премьеры: 22 марта 2016
    Продолжительность: ~00: 59: 00 серия
    Качество видео: HDTV
    Перевод: Многоголосый закадровый, профессиональный -NewStudio
    Вид субтитров: Вшитые неотключаемые (Наложены поверх изображения и составляют с ним единое целое)
    Язык субтитров: Русский
    Реклама: присутствуют аудио и видео вставки рекламы
    Видео: AVC/H.264, 1920х1080, ~5 375 Kbps, 25.000 fps
    Аудио Rus: AC-3, 2 ch, 48.0 KHz, 192 Kbps - многоголосый закадровый
    Аудио Eng: AC-3, 2 ch, 48.0 KHz, 192 Kbps - оригинал
    Код:

    The.A.Word.s01e01.HDTV.1080p.NewStudio.mkv
    Format : Matroska
    Format version : Version 4/Version 2
    File size : 2.36 GiB
    Duration : 58mn 45s
    Overall bit rate : 5 761 Kbps
    Encoded date : UTC 2016-06-27 13:30:40
    Writing application : mkvmerge v8.2.0 (\'World of Adventure\') 32bit
    Writing library : libebml v1.3.1 + libmatroska v1.4.2
    Video
    ID : 1
    Format : AVC
    Format/Info : Advanced Video Codec
    Format profile :High@L4.1
    Format settings, CABAC : Yes
    Format settings, ReFrames : 4 frames
    Codec ID : V_MPEG4/ISO/AVC
    Duration : 58mn 45s
    Bit rate : 5 375 Kbps
    Width : 1 920 pixels
    Height : 1 080 pixels
    Display aspect ratio : 16:9
    Frame rate mode : Constant
    Frame rate : 25.000 fps
    Color space : YUV
    Chroma subsampling : 4:2:0
    Bit depth : 8 bits
    Scan type : Progressive
    Bits/(Pixel*Frame) : 0.104
    Stream size : 2.21 GiB (93%)
    Writing library : x264 core 148 r2665 a01e339
    Encoding settings : cabac=1/ref=4/deblock=1:0:0/analyse=0x3:0x113/me=umh/subme=8/psy=1/psy_rd=1.00:0.00/mixed_ref=1/me_range=16/chroma_me=1/trellis=1/8x8dct=1/cqm=0/deadzone=21, 11/fast_pskip=1/chroma_qp_offset=-2/threads=18/lookahead_threads=3/sliced_threads=0/nr=0/decimate=1/interlaced=0/bluray_compat=0/constrained_intra=0/bframes=3/b_pyramid=2/b_adapt=2/b_bias=0/direct=3/weightb=1/open_gop=0/weightp=2/keyint=250/keyint_min=25/scenecut=40/intra_refresh=0/rc_lookahead=50/rc=crf/mbtree=1/crf=17.0/qcomp=0.60/qpmin=0/qpmax=69/qpstep=4/ip_ratio=1.40/aq=1:1.00
    Language : English
    Default : Yes
    Forced : No
    Color range : Limited
    Matrix coefficients : BT.709
    Audio #1
    ID : 2
    Format : AC-3
    Format/Info : Audio Coding 3
    Mode extension : CM (complete main)
    Format settings, Endianness : Big
    Codec ID : A_AC3
    Duration : 58mn 44s
    Bit rate mode : Constant
    Bit rate : 192 Kbps
    Channel(s) : 2 channels
    Channel positions : Front: L R
    Sampling rate : 48.0 KHz
    Frame rate : 31.250 fps (1536 spf)
    Compression mode : Lossy
    Delay relative to video : 25ms
    Stream size : 80.7 MiB (3%)
    Title : NewStudio.TV
    Language : Russian
    Default : Yes
    Forced : No
    Audio #2
    ID : 3
    Format : AC-3
    Format/Info : Audio Coding 3
    Mode extension : CM (complete main)
    Format settings, Endianness : Big
    Codec ID : A_AC3
    Duration : 58mn 45s
    Bit rate mode : Constant
    Bit rate : 192 Kbps
    Channel(s) : 2 channels
    Channel positions : Front: L R
    Sampling rate : 48.0 KHz
    Frame rate : 31.250 fps (1536 spf)
    Compression mode : Lossy
    Delay relative to video : 240ms
    Stream size : 80.7 MiB (3%)
    Language : English
    Default : No
    Forced : No
    Text
    ID : 4
    Format : ASS
    Codec ID : S_TEXT/ASS
    Codec ID/Info : Advanced Sub Station Alpha
    Duration : 31mn 1s
    Bit rate : 5 bps
    Count of elements : 20
    Compression mode : Lossless
    Stream size : 1.29 KiB (0%)
    Title : Forced
    Language : Russian
    Default : Yes
    Forced : No


    Скриншоты для ознакомления




    Онлайн видео Слово на букву А



    Слово на букву А/The A Word (2016) HDTV [H.264/1080p-LQ] (сезон 1, серии 1-1 из 6) NewStudio (обновляемая)
    загрузка...
    Рейтинг →
     (голосов: 1, оценка 4/5, голосовать можно 1 раз )

    Другие торренты по теме:

  • О бедном гусаре замолвите слово (1980) DVDRip [H.264] скачать через торрент бесплатно
  • Т. Ф. Кузьмина (сост.) и др. | Революция, изменившая мир. Слово прогрессивных людей мира о Великой Октябрьской социалистической революции (1977) [DJVU] скачать через торрент бесплатно
  • Иван Алексеевич Чарота (сост.) | Слово и Дух. Антология русской духовной поэзии (Х-ХХ вв.) (2010) [DJVU] скачать через торрент бесплатно
  • Живое слово (10.06.2015) SATRip скачать через торрент бесплатно
  • Живое слово (2015) SATRip скачать через торрент бесплатно
  • Живое слово (2015) SATRip (1-4 выпуски из 6) (Обновляемая) скачать через торрент бесплатно
  • Слово пастыря (27.06.2015) SATRip скачать через торрент бесплатно
  • Слово пастыря (04.07.2015) SATRip скачать через торрент бесплатно


    • Комментарии (0):

      Информация

      Информация

        Посетители, находящиеся в группе Гости, не могут оставлять комментарии в данной новости.

        ↓ Меню




        ↓ Опрос

        Вы добавили сайт в закладки?
        Да
        Нет


        Top 10 за месяц (Фильмы)