.
Авторизация | Регистрация
Хочешь лучшие торренты? Добавь свой email!
Добавить

Торрент скачать бесплатно

» » Последний магнат / The Last Tycoon (2016) WEB-DL [H.264 / 720p-LQ] (сезон 1, серии 1 из 10) SunshineStudio (обновляемая) торрент скачать бесплатно




    Последний магнат / The Last Tycoon (2016) WEB-DL [H.264 / 720p-LQ] (сезон 1, серии 1 из 10) SunshineStudio (обновляемая) торрент скачать бесплатно

    Опубликовал: Админ | Дата: 29-06-2016, 04:00 | Просмотров: 14

    Производство: США
    Жанр: Драма
    Режиссер: Билли Рэй

    Актеры
    Мэтт Бомер, Лили Коллинз, Доминик МакЭллигот, Келси Грэммер, Джессика Де Гау, Розмари ДеУитт, Боб Гантон, Бэйли Ноубл, Линдси Горт, Марк О\'Брайэн

    Описание

    Эпоха Голливуда 1930-х. Молодой продюсер Монро Стар борется за власть со своим наставником и текущим главой киностудии Пэтом Брэди.

    Релиз от: SunshineStudio
    Продолжительность: ~ 01: 00: 00 серия
    Качество видео: WEB-DL
    Перевод: Двуголосый закадровый, любительский - SunshineStudio
    Реклама: присутствуют аудио, видео вставки рекламы.
    Видео: AVC/H.264, 1280x720, ~1923 Кбит/сек
    Аудио: AC3, 2 ch, 192 Кбит/сек
    Код:

    Общее
    Уникальный идентификатор : 219748895142329287616821154759580350908 (0xA55219057E22FCDEA9161E10ED6879BC)
    Полное имя : H:СериалыПоследний магнат (2016) 1 сезон любимого сериалаThe.Last.Tycoon.S01.720pThe.Last.Tycoon.S01E01.720p.SunshineStudio.mkv
    Формат : Matroska
    Версия формата : Version 4/Version 2
    Размер файла : 930 Мбайт
    Продолжительность : 1 ч. 1 м.
    Общий поток : 2117 Кбит/сек
    Дата кодирования : UTC 2016-06-26 15:15:40
    Программа кодирования : mkvmerge v8.3.0 (\'Over the Horizon\') 64bit
    Библиотека кодирования : libebml v1.3.1 + libmatroska v1.4.2
    Видео
    Идентификатор : 1
    Формат : AVC
    Формат/Информация : Advanced Video Codec
    Профиль формата :High@L3.1
    Параметр CABAC формата : Да
    Параметр ReFrames формата : 4 кадра
    Идентификатор кодека : V_MPEG4/ISO/AVC
    Продолжительность : 1 ч. 1 м.
    Битрейт : 1923 Кбит/сек
    Ширина : 1280 пикселей
    Высота : 720 пикселей
    Соотношение сторон : 16:9
    Режим частоты кадров : Постоянный
    Частота кадров : 29, 970 (29970/1000) кадров/сек
    Цветовое пространство : YUV
    Субдискретизация насыщенности : 4:2:0
    Битовая глубина : 8 бит
    Тип развёртки : Прогрессивная
    Бит/(Пиксели*Кадры) : 0.070
    Размер потока : 844 Мбайт (91%)
    Библиотека кодирования : x264 core 146 r2538 121396c
    Настройки программы : cabac=1/ref=1/deblock=1:0:0/analyse=0x3:0x113/me=hex/subme=2/psy=1/psy_rd=1.00:0.00/mixed_ref=0/me_range=16/chroma_me=1/trellis=0/8x8dct=1/cqm=0/deadzone=21, 11/fast_pskip=1/chroma_qp_offset=0/threads=9/lookahead_threads=3/sliced_threads=0/nr=0/decimate=1/interlaced=0/bluray_compat=0/constrained_intra=0/bframes=3/b_pyramid=2/b_adapt=1/b_bias=0/direct=1/weightb=1/open_gop=0/weightp=1/keyint=250/keyint_min=25/scenecut=40/intra_refresh=0/rc_lookahead=10/rc=crf/mbtree=1/crf=18.0/qcomp=0.60/qpmin=0/qpmax=69/qpstep=4/ip_ratio=1.40/aq=1:1.00
    Default : Да
    Forced : Нет
    Аудио
    Идентификатор : 2
    Формат : AC-3
    Формат/Информация : Audio Coding 3
    Расширение режима : CM (complete main)
    Параметр Endianness формата : Big
    Идентификатор кодека : A_AC3
    Продолжительность : 1 ч. 1 м.
    Вид битрейта : Постоянный
    Битрейт : 192 Кбит/сек
    Каналы : 2 канала
    Расположение каналов : Front: L R
    Частота : 48, 0 КГц
    Частота кадров : 31, 250 кадров/сек (1536 spf)
    Метод сжатия : С потерями
    Размер потока : 84, 3 Мбайт (9%)
    Default : Да
    Forced : Нет


    Скриншоты для ознакомления




    Онлайн видео Последний магнат



    Последний магнат/The Last Tycoon (2016) WEB-DL [H.264/720p-LQ] (сезон 1, серии 1 из 10) SunshineStudio (обновляемая)
    загрузка...
    Рейтинг →
     (голосов: 1, оценка 5/5, голосовать можно 1 раз )

    Другие торренты по теме:

  • Последний магнат / The Last Tycoon (2016) WEBRip [H.264 / 1080p-LQ] (сезон 1, серии 1 из 9) LostFilm (обновляемая)


    • Комментарии (0):

      Информация

      Информация

        Посетители, находящиеся в группе Гости, не могут оставлять комментарии в данной новости.

        ↓ Меню




        ↓ Опрос

        Вы добавили сайт в закладки?
        Да
        Нет


        Top 10 за месяц (Фильмы)