.
Авторизация | Регистрация
Хочешь лучшие торренты? Добавь свой email!
Добавить

Торрент скачать бесплатно

» » Изгои / Чужаки / Outsiders (2016) WEB-DLRip [H.264 / 1080p-LQ] (сезон 1, серии 1-6 из 13) LostFilm (обновляемая) торрент скачать бесплатно




    Изгои / Чужаки / Outsiders (2016) WEB-DLRip [H.264 / 1080p-LQ] (сезон 1, серии 1-6 из 13) LostFilm (обновляемая) торрент скачать бесплатно

    Опубликовал: Админ | Дата: 29-06-2016, 04:00 | Просмотров: 9

    Производство: США
    Жанр: Драма
    Режиссер: Джон Эмиел, Адам Бернштейн, Эндрю Бернштейн

    Актеры
    Дэвид Морс (Большой Фостер Фаррелл), Джо Андерсон (Эйса Фаррелл), Райан Херст (Маленький Фостер Фаррелл), Кайл Галлнер (Хэсил), Кристина Джексон (Салли-Энн), Томас М. Райт (шериф Уэйд Хаутон), Филлис Соммервиль (Леди Рэй), Ребекка Харрис (Ледда Доббс).

    Описание

    Более 200 лет назад клан Фарреллов поселился в горах Аппалачи. Годы шли, одно поколение сменялось другим, но их жизненный уклад оставался прежним — охота, рыбалка, собственный алкоголь, отсутствие денежных средств и контактов с цивилизацией. При необходимости Фарреллы выезжают в город, чтобы разжиться товарами, которых на лоне природы не найти, и во время таких набегов горожане стараются не контактировать с этими странными дикарями на квадроциклах. О таком странном сюжете не догадывалась даже Волочкова. И вроде бы все уже привыкли к такому беспокойному соседству, но однажды некая влиятельная компания обнаружила на территории поселения огромные залежи угля и направила Фарреллам уведомление о необходимости покинуть потенциально прибыльное место. Однако жадные инвесторы даже не представляют, с кем имеют дело: хозяева земли ни за что не расстанутся со своей родиной и будут бороться за каждый ее квадратный сантиметр. Для всего окружающего мира эти люди — опасные и непредсказуемые чужаки. Все догадываются, что связываться с ними не стоит, но только местный шериф знает это доподлинно: однажды Фарреллов уже пытались поставить на колени, и тогда все закончилось трагедией. Вот и теперь нешуточное противостояние между инвесторами, сынами Аппалачей и горожанами рискует перерасти в настоящую кровопролитную войну...

    Продолжительность: ~00: 54: 00 серия
    Качество видео: WEB-DLRip
    Перевод: Многоголосый закадровый, профессиональный -LostFilm
    Реклама: присутствуют заставка и логотип LostFilm
    Видео: AVC/H.264, 1920х1080, ~5 242 Kbps, 23.976 fps
    Аудио Rus: AC-3, 384 Kbps, 2 channels, 48.0 KHz - многоголосый закадровый
    Аудио Eng: AC-3, 384 Kbps, 2 channels, 48.0 KHz - оригинал
    Код:

    Outsiders.S01E01.1080p.rus.LostFilm.mkv
    Format : Matroska
    Format version : Version 4/Version 2
    File size : 2.26 GiB
    Duration : 54mn 8s
    Overall bit rate : 5 987 Kbps
    Encoded date : UTC 2016-05-23 18:54:41
    Writing application : mkvmerge v8.8.0 (\'Wind at my back\') 64bit
    Writing library : libebml v1.3.3 + libmatroska v1.4.4
    Video
    ID : 1
    Format : AVC
    Format/Info : Advanced Video Codec
    Format profile :High@L4.1
    Format settings, CABAC : Yes
    Format settings, ReFrames : 4 frames
    Codec ID : V_MPEG4/ISO/AVC
    Duration : 54mn 8s
    Bit rate : 5 242 Kbps
    Width : 1 920 pixels
    Height : 1 080 pixels
    Display aspect ratio : 16:9
    Frame rate mode : Constant
    Frame rate : 23.976 (24000/1001) fps
    Original frame rate : 23.976 (23976/1000) fps
    Color space : YUV
    Chroma subsampling : 4:2:0
    Bit depth : 8 bits
    Scan type : Progressive
    Bits/(Pixel*Frame) : 0.105
    Stream size : 1.97 GiB (87%)
    Writing library : x264 core 112 r1834 a51816a
    Encoding settings : cabac=1/ref=4/deblock=1:-3:-2/analyse=0x3:0x113/me=hex/subme=7/psy=1/psy_rd=1.00:0.00/mixed_ref=1/me_range=16/chroma_me=1/trellis=1/8x8dct=1/cqm=0/deadzone=21, 11/fast_pskip=1/chroma_qp_offset=-2/threads=12/sliced_threads=0/nr=0/decimate=1/interlaced=0/constrained_intra=0/bframes=5/b_pyramid=2/b_adapt=1/b_bias=0/direct=1/weightb=1/open_gop=0/weightp=2/keyint=250/keyint_min=25/scenecut=40/intra_refresh=0/rc_lookahead=40/rc=2pass/mbtree=1/bitrate=5242/ratetol=1.0/qcomp=0.60/qpmin=0/qpmax=51/qpstep=4/cplxblur=20.0/qblur=0.5/vbv_maxrate=10000/vbv_bufsize=256000/ip_ratio=1.40/aq=1:1.00/nal_hrd=none
    Default : Yes
    Forced : No
    Audio #1
    ID : 2
    Format : AC-3
    Format/Info : Audio Coding 3
    Mode extension : CM (complete main)
    Format settings, Endianness : Big
    Codec ID : A_AC3
    Duration : 54mn 8s
    Bit rate mode : Constant
    Bit rate : 384 Kbps
    Channel(s) : 2 channels
    Channel positions : Front: L R
    Sampling rate : 48.0 KHz
    Frame rate : 31.250 fps (1536 spf)
    Compression mode : Lossy
    Stream size : 149 MiB (6%)
    Default : Yes
    Forced : No
    Audio #2
    ID : 3
    Format : AC-3
    Format/Info : Audio Coding 3
    Mode extension : CM (complete main)
    Format settings, Endianness : Big
    Codec ID : A_AC3
    Duration : 54mn 8s
    Bit rate mode : Constant
    Bit rate : 384 Kbps
    Channel(s) : 2 channels
    Channel positions : Front: L R
    Sampling rate : 48.0 KHz
    Frame rate : 31.250 fps (1536 spf)
    Compression mode : Lossy
    Stream size : 149 MiB (6%)
    Default : No
    Forced : No


    Скриншоты для ознакомления




    Онлайн видео Изгои



    Изгои/Чужаки/Outsiders (2016) WEB-DLRip [H.264/1080p-LQ] (сезон 1, серии 1-6 из 13) LostFilm (обновляемая)
    загрузка...
    Рейтинг →
     (голосов: 1, оценка 3/5, голосовать можно 1 раз )

    Другие торренты по теме:

  • И. С. Свенцицкая | Изгои Вечного города. Первые христиане в Древнем Риме (2006) [DJVU]
  • BBC. В краю муссонов: Экстравагантные изгои / Strange castaways (2014) BDRip [H.264 / 720p] скачать через торрент бесплатно
  • Изгои / Outsiders (2016) WEB-DLRip (сезон 1, серии 1 из 13) BaibaKo (обновляемая)
  • Изгои / Outsiders (2016) WEB-DLRip (сезон 1, серии 1 из 13) NewStudio (обновляемая)
  • Сьюзан Хинтон | Изгои (2016) [FB2]


    • Комментарии (0):

      Информация

      Информация

        Посетители, находящиеся в группе Гости, не могут оставлять комментарии в данной новости.

        ↓ Меню




        ↓ Опрос

        Вы добавили сайт в закладки?
        Да
        Нет


        Top 10 за месяц (Фильмы)