.
Авторизация | Регистрация
Хочешь лучшие торренты? Добавь свой email!
Добавить

Торрент скачать бесплатно

» » Отдел (2015) SATRip [H.264] (серия 1-4 из 16) (Обновляемая) торрент скачать бесплатно




    Отдел (2015) SATRip [H.264] (серия 1-4 из 16) (Обновляемая) торрент скачать бесплатно

    Опубликовал: Админ | Дата: 29-06-2016, 04:00 | Просмотров: 10

    Производство: Россия, ПЦ Браво
    Жанр: Детектив, Криминал
    Режиссер: Владимир Нахабцев мл

    Актеры
    Александр Бухаров, Анастасия Заворотнюк, Илья Гавриленков, Анатолий Гущин, Евгений Сидихин, Анна Хилькевич, Вадим Демчог, Александр Никитин , Александр Песков, Сергей Колесников , Георгий Дронов, Яна Попова, Светлана Зельбет, Руслан Искандаров, Инга Нагорная, Андрей Щукин, Дмитрий Пчела, Татьяна Черкасова, Сергей Внуков , Евгений Михеев, Максим Коновалов, Ольга Юрасова

    Описание

    Сюжет сериала вращается вокруг трех оперативников Романа Русакова , Владимира Щукина и Алексея Мухина .В каждой серии Отдела оперативники сталкиваются с новыми преступлениями. Чтобы их раскрыть, команде Русакова придется не раз отступать от правил, ведь их методы расследования эффективны, но не всегда законны. Но оперативники готовы пойти на любые жертвы, чтобы не прогибаться перед криминалом, не предавать друзей и дело, которому служат.Сквозной линией через весь сериал проходит история о хитроумномманьяке, который одну за другой убивает девушек легкого поведения.Оперативники бьются над вопросом, почему преступник нападает только на ночных бабочек и лишает их жизни при помощи армейского ножа, привезенного из Непала. Разбираясь в этом деле, они пытаются вытащить из СИЗО начальника Ивана Ушанова. Ему грозит тюрьма после того, как он перешел дорогу заместителю начальника ГУВД генералу Александру Харламову .

    Возраст: 12+ (зрителям, достигшим 12 лет)
    Дата российской премьеры: 26 июня 2016 (НТВ)
    Продолжительность: ~00: 43: 00 серия
    Качество видео: SATRip
    Видео: AVC/H.264, 720х400, ~1550 Кбит/сек
    Аудио: AC3, 192 Кбит/сек, 2 канала, CBR
    Код:

    Общее
    Уникальный идентификатор : 236845056558930391573832678235234131683 (0xB22EB2DB6D5C86BBA9CFC7CABA885EE3)
    Полное имя : H:Отдел1 серия_Отдел_rip by_Aleksan55.mkv
    Формат : Matroska
    Версия формата : Version 2
    Размер файла : 544 Мбайт
    Продолжительность : 43 м.
    Общий поток : 1744 Кбит/сек
    Дата кодирования : UTC 2016-06-26 13:44:29
    Программа кодирования : mkvmerge v7.8.0 (\'River Man\') 32bit built on Apr 3 2015 12:11:22
    Библиотека кодирования : libebml v1.3.1 + libmatroska v1.4.2
    Видео
    Идентификатор : 1
    Формат : AVC
    Формат/Информация : Advanced Video Codec
    Профиль формата :High@L4.1
    Параметр CABAC формата : Да
    Параметр ReFrames формата : 12 кадров
    Идентификатор кодека : V_MPEG4/ISO/AVC
    Продолжительность : 43 м.
    Битрейт : 1550 Кбит/сек
    Ширина : 720 пикселей
    Высота : 400 пикселей
    Соотношение сторон : 16:9
    Режим частоты кадров : Постоянный
    Частота кадров : 25, 000 кадров/сек
    Цветовое пространство : YUV
    Субдискретизация насыщенности : 4:2:0
    Битовая глубина : 8 бит
    Тип развёртки : Прогрессивная
    Бит/(Пиксели*Кадры) : 0.215
    Размер потока : 473 Мбайт (87%)
    Библиотека кодирования : x264 core 146 r2538 121396c
    Настройки программы : cabac=1/ref=12/deblock=1:0:0/analyse=0x3:0x113/me=umh/subme=9/psy=1/psy_rd=1.00:0.20/mixed_ref=0/me_range=32/chroma_me=1/trellis=2/8x8dct=1/cqm=0/deadzone=21, 11/fast_pskip=1/chroma_qp_offset=-3/threads=3/lookahead_threads=3/sliced_threads=0/nr=0/decimate=1/interlaced=0/bluray_compat=0/constrained_intra=0/bframes=12/b_pyramid=2/b_adapt=1/b_bias=0/direct=3/weightb=1/open_gop=0/weightp=2/keyint=250/keyint_min=25/scenecut=40/intra_refresh=0/rc_lookahead=40/rc=2pass/mbtree=1/bitrate=1550/ratetol=1.0/qcomp=0.60/qpmin=0/qpmax=69/qpstep=4/cplxblur=20.0/qblur=0.5/ip_ratio=1.40/aq=1:1.20
    Default : Да
    Forced : Нет
    Цветовой диапазон : Limited
    Основные цвета : BT.601 PAL
    Характеристики трансфера : BT.470 System B, BT.470 System G
    Коэффициенты матрицы : BT.601
    Аудио
    Идентификатор : 2
    Формат : AC-3
    Формат/Информация : Audio Coding 3
    Расширение режима : CM (complete main)
    Параметр Endianness формата : Big
    Идентификатор кодека : A_AC3
    Продолжительность : 43 м.
    Вид битрейта : Постоянный
    Битрейт : 192 Кбит/сек
    Каналы : 2 канала
    Расположение каналов : Front: L R
    Частота : 48, 0 КГц
    Метод сжатия : С потерями
    Размер потока : 59, 8 Мбайт (11%)
    Default : Да
    Forced : Нет


    Скриншоты для ознакомления




    Онлайн видео Отдел (2015) SATRip [H.264] (серия 1



    Отдел (2015) SATRip [H.264] (серия 1-4 из 16) (Обновляемая)
    загрузка...
    Рейтинг →
     (голосов: 1, оценка 3/5, голосовать можно 1 раз )

    Другие торренты по теме:

  • Отдел 44 (2015) SATRip (серии 1-3 из 52) (обновляемая) скачать через торрент бесплатно


    • Комментарии (0):

      Информация

      Информация

        Посетители, находящиеся в группе Гости, не могут оставлять комментарии в данной новости.

        ↓ Меню




        ↓ Опрос

        Вы добавили сайт в закладки?
        Да
        Нет


        Top 10 за месяц (Фильмы)