.
Авторизация | Регистрация
Хочешь лучшие торренты? Добавь свой email!
Добавить

Торрент скачать бесплатно

» » Королева Юга / Queen of the South (2016) WEB-DL [H.264 / 1080p-LQ] (сезон 1, серии 1-1 из 13) NewStudio (обновляемая) торрент скачать бесплатно




    Королева Юга / Queen of the South (2016) WEB-DL [H.264 / 1080p-LQ] (сезон 1, серии 1-1 из 13) NewStudio (обновляемая) торрент скачать бесплатно

    Опубликовал: Админ | Дата: 29-06-2016, 04:00 | Просмотров: 130

    Производство: США
    Жанр: Боевик, Триллер, Драма
    Режиссер: Шарлотта Зилинг

    Актеры
    Алиси Брага, Жоаким ди Алмейда, Жустина Мачадо, Питер Гадиот, Хемки Мадера, Джеймс Мартинес, Даррен Шиэн

    Описание

    Тереза покидает Мексику после того, как убивают её приятеля-наркокурьера. Обосновавшись в Испании, она стремится стать всевластным в стране контрабандистом наркотиков и отомстить за смерть своего любовника.

    Продолжительность: ~ 00: 45: 00 серия
    Качество видео: WEB-DL
    Перевод: Многоголосый закадровый, профессиональный -NewStudio
    Реклама: присутствуют голосовые вставки рекламы
    Видео: AVC/H.264, 1916x1076, ~5 052 Kbps, 23.976 fps
    Аудио Rus: AC3, 48, 0 kHz, 6 ch, 384 kb/s - многоголосый закадровый
    Аудио Eng: AC3, 48, 0 kHz, 6 ch, 384 kb/s - оригинал
    Код:

    Queen.of.the.South.WEBDL.1080p.NewStudioQueen.of.the.South.s01e01.WEBDL.1080p.NewStudio.mkv
    Format : Matroska
    Format version : Version 4/Version 2
    File size : 1.85 GiB
    Duration : 45mn 22s
    Overall bit rate : 5 822 Kbps
    Encoded date : UTC 2016-06-26 06:25:13
    Writing application : mkvmerge v8.2.0 (\'World of Adventure\') 32bit
    Writing library : libebml v1.3.1 + libmatroska v1.4.2
    Video
    ID : 1
    Format : AVC
    Format/Info : Advanced Video Codec
    Format profile : High@L4
    Format settings, CABAC : Yes
    Format settings, ReFrames : 4 frames
    Codec ID : V_MPEG4/ISO/AVC
    Duration : 45mn 22s
    Bit rate : 5 052 Kbps
    Width : 1 916 pixels
    Height : 1 076 pixels
    Display aspect ratio : 16:9
    Frame rate mode : Constant
    Frame rate : 23.976 (24000/1001) fps
    Color space : YUV
    Chroma subsampling : 4:2:0
    Bit depth : 8 bits
    Scan type : Progressive
    Bits/(Pixel*Frame) : 0.102
    Stream size : 1.60 GiB (87%)
    Language : English
    Default : Yes
    Forced : No
    Color range : Limited
    Color primaries : BT.709
    Transfer characteristics : BT.709
    Matrix coefficients : BT.709
    Audio #1
    ID : 2
    Format : AC-3
    Format/Info : Audio Coding 3
    Mode extension : CM (complete main)
    Format settings, Endianness : Big
    Codec ID : A_AC3
    Duration : 45mn 22s
    Bit rate mode : Constant
    Bit rate : 384 Kbps
    Channel(s) : 6 channels
    Channel positions : Front: L C R, Side: L R, LFE
    Sampling rate : 48.0 KHz
    Frame rate : 31.250 fps (1536 spf)
    Compression mode : Lossy
    Stream size : 125 MiB (7%)
    Title : NewStudio.TV
    Language : Russian
    Default : Yes
    Forced : No
    Audio #2
    ID : 3
    Format : AC-3
    Format/Info : Audio Coding 3
    Mode extension : CM (complete main)
    Format settings, Endianness : Big
    Codec ID : A_AC3
    Duration : 45mn 22s
    Bit rate mode : Constant
    Bit rate : 384 Kbps
    Channel(s) : 6 channels
    Channel positions : Front: L C R, Side: L R, LFE
    Sampling rate : 48.0 KHz
    Frame rate : 31.250 fps (1536 spf)
    Compression mode : Lossy
    Stream size : 125 MiB (7%)
    Language : English
    Default : No
    Forced : No


    Скриншоты для ознакомления




    Онлайн видео Королева Юга



    Королева Юга/Queen of the South (2016) WEB-DL [H.264/1080p-LQ] (сезон 1, серии 1-1 из 13) NewStudio (обновляемая)
    загрузка...
    Рейтинг →
     (голосов: 1, оценка 4/5, голосовать можно 1 раз )

    Другие торренты по теме:

  • Королева / Queen (2014) HDRip скачать через торрент бесплатно
  • Королева Марго / La reine Margot / Queen Margot (1994) BDRip [H.264 / 720p-LQ] [Hi10P] [New Directors Cut]
  • Royal Detective: Queen of Shadows / Королевский Детектив. Королева Теней (2014) [Ru] Unofficial [Collector’s Edition / Коллекционное издание] скачать через торрент бесплатно
  • Африканская королева / The African Queen (1951) BDRip [H.264 / 720p] скачать через торрент бесплатно
  • Animal Planet. Королева львов / The Lion Queen (2015) HDTVRip [Серии 1-6 из 6] скачать через торрент бесплатно
  • Grim Tales 4: The Stone Queen / Страшные сказки. Каменная королева (2013) [Ru] Unofficial [Collectors Edition / Коллекционное издание] скачать через торрент бесплатно
  • Королева скота из Монтаны / Cattle Queen of Montana (1954) DVDRip [H.264] [VO] скачать через торрент бесплатно
  • Dark Parables 9: Queen of Sands / Темные притчи 9: Королева песков (2015) [Ru] Unofficial [Collectors Edition / Коллекционное издание] скачать через торрент бесплатно


    • Комментарии (0):

      Информация

      Информация

        Посетители, находящиеся в группе Гости, не могут оставлять комментарии в данной новости.

        ↓ Меню




        ↓ Опрос

        Вы добавили сайт в закладки?
        Да
        Нет


        Top 10 за месяц (Фильмы)