.
Авторизация | Регистрация
Хочешь лучшие торренты? Добавь свой email!
Добавить

Торрент скачать бесплатно

» » Королева Юга / Queen of the South (2016) WEB-DLRip [H.264 / 720p-LQ] (сезон 1, серии 1 из 13) NewStudio (обновляемая) торрент скачать бесплатно




    Королева Юга / Queen of the South (2016) WEB-DLRip [H.264 / 720p-LQ] (сезон 1, серии 1 из 13) NewStudio (обновляемая) торрент скачать бесплатно

    Опубликовал: Админ | Дата: 29-06-2016, 04:00 | Просмотров: 280

    Производство: США, USA
    Жанр: Боевик, триллер, драма
    Режиссер: Шарлотта Зилинг

    Актеры
    Алиси Брага, Жоаким ди Алмейда, Жустина Мачадо, Питер Гадиот, Хемки Мадера, Джеймс Мартинес, Даррен Шиэн

    Описание

    Тереза Мендоса была счастлива со своим возлюбленным, наркоторговцем, работающим на могущественный картель. Однако после того, как его убивают, она вынуждена бежать из Мексики и едва заметно искать убежище в США. Очень скоро девушка сама становится частью преступного мира. Она намеривается изучить все тонкости ведения наркобизнеса с тем, чтобы сместить главу картеля, причастного к смерти ее жениха.

    Дата мировой премьеры: 21 июня 2016
    Продолжительность: ~ 00: 45: 00 серия
    Качество видео: WEB-DLRip
    Перевод: Многоголосый закадровый, профессиональный -NewStudio
    Автор перевода: Александра Цернант
    Реклама: присутствуют голосовые вставки рекламы
    Видео: AVC/H.264, 1280x718 (16: 9), ~4 029 kb/s
    Аудио Rus: AC3, 48, 0 kHz, 2 ch, 384 kb/s - многоголосый закадровый
    Аудио Eng: AC3, 48, 0 kHz, 2 ch, 384 kb/s - оригинал
    Код:
    General
    Unique ID : 253261059746777942595541296777500143170 (0xBE884E4D95D0B7F59CFBABECD421AE42)
    Complete name : Queen of the South [S01] [NewStudio]Queen.of.the.South.s01e01.WEBDL.720p.NewStudio.TV.mkv
    Format : Matroska
    Format version : Version 4/Version 2
    File size : 1.52 GiB
    Duration : 45mn 22s
    Overall bit rate : 4 799 Kbps
    Encoded date : UTC 2016-06-26 06:23:00
    Writing application : mkvmerge v8.2.0 (\'World of Adventure\') 32bit
    Writing library : libebml v1.3.1 + libmatroska v1.4.2
    Video
    ID : 1
    Format : AVC
    Format/Info : Advanced Video Codec
    Format profile :High@L3.1
    Format settings, CABAC : No
    Format settings, ReFrames : 2 frames
    Codec ID : V_MPEG4/ISO/AVC
    Duration : 45mn 22s
    Bit rate : 4 029 Kbps
    Width : 1 280 pixels
    Height : 718 pixels
    Display aspect ratio : 16:9
    Frame rate mode : Constant
    Frame rate : 23.976 (24000/1001) fps
    Color space : YUV
    Chroma subsampling : 4:2:0
    Bit depth : 8 bits
    Scan type : Progressive
    Bits/(Pixel*Frame) : 0.183
    Stream size : 1.28 GiB (84%)
    Language : English
    Default : Yes
    Forced : No
    Color range : Limited
    Color primaries : BT.709
    Transfer characteristics : BT.709
    Matrix coefficients : BT.709
    Audio #1
    ID : 2
    Format : AC-3
    Format/Info : Audio Coding 3
    Mode extension : CM (complete main)
    Format settings, Endianness : Big
    Codec ID : A_AC3
    Duration : 45mn 22s
    Bit rate mode : Constant
    Bit rate : 384 Kbps
    Channel(s) : 6 channels
    Channel positions : Front: L C R, Side: L R, LFE
    Sampling rate : 48.0 KHz
    Frame rate : 31.250 fps (1536 spf)
    Compression mode : Lossy
    Stream size : 125 MiB (8%)
    Title : NewStudio.TV
    Language : Russian
    Default : Yes
    Forced : No
    Audio #2
    ID : 3
    Format : AC-3
    Format/Info : Audio Coding 3
    Mode extension : CM (complete main)
    Format settings, Endianness : Big
    Codec ID : A_AC3
    Duration : 45mn 22s
    Bit rate mode : Constant
    Bit rate : 384 Kbps
    Channel(s) : 6 channels
    Channel positions : Front: L C R, Side: L R, LFE
    Sampling rate : 48.0 KHz
    Frame rate : 31.250 fps (1536 spf)
    Compression mode : Lossy
    Stream size : 125 MiB (8%)
    Language : English
    Default : No
    Forced : No


    Скриншоты для ознакомления




    Онлайн видео Королева Юга



    Королева Юга/Queen of the South (2016) WEB-DLRip [H.264/720p-LQ] (сезон 1, серии 1 из 13) NewStudio (обновляемая)
    загрузка...
    Рейтинг →
     (голосов: 1, оценка 4/5, голосовать можно 1 раз )

    Другие торренты по теме:

  • Королева / Queen (2014) HDRip скачать через торрент бесплатно
  • Королева Марго / La reine Margot / Queen Margot (1994) BDRip [H.264 / 720p-LQ] [Hi10P] [New Directors Cut]
  • Royal Detective: Queen of Shadows / Королевский Детектив. Королева Теней (2014) [Ru] Unofficial [Collector’s Edition / Коллекционное издание] скачать через торрент бесплатно
  • Африканская королева / The African Queen (1951) BDRip [H.264 / 720p] скачать через торрент бесплатно
  • Animal Planet. Королева львов / The Lion Queen (2015) HDTVRip [Серии 1-6 из 6] скачать через торрент бесплатно
  • Grim Tales 4: The Stone Queen / Страшные сказки. Каменная королева (2013) [Ru] Unofficial [Collectors Edition / Коллекционное издание] скачать через торрент бесплатно
  • Королева скота из Монтаны / Cattle Queen of Montana (1954) DVDRip [H.264] [VO] скачать через торрент бесплатно
  • Dark Parables 9: Queen of Sands / Темные притчи 9: Королева песков (2015) [Ru] Unofficial [Collectors Edition / Коллекционное издание] скачать через торрент бесплатно


    • Комментарии (0):

      Информация

      Информация

        Посетители, находящиеся в группе Гости, не могут оставлять комментарии в данной новости.

        ↓ Меню




        ↓ Опрос

        Вы добавили сайт в закладки?
        Да
        Нет


        Top 10 за месяц (Фильмы)