.
Авторизация | Регистрация
Хочешь лучшие торренты? Добавь свой email!
Добавить

Торрент скачать бесплатно

» » Королева юга / Queen of the South (2016) WEB-DLRip (сезон 1, серии 1 из 13) LostFilm (обновляемая) торрент скачать бесплатно




    Королева юга / Queen of the South (2016) WEB-DLRip (сезон 1, серии 1 из 13) LostFilm (обновляемая) торрент скачать бесплатно

    Опубликовал: Админ | Дата: 29-06-2016, 04:00 | Просмотров: 303

    Производство: США/Frequency Films, Friendly Films (II), Origen Producciones Cinematograficas S.A.
    Жанр: боевик, триллер, драма
    Режиссер: Шарлотта Зилинг

    Актеры
    Алиси Брага, Жоаким ди Алмейда, Жустина Мачадо, Питер Гадиот, Джон Майкл Экер, Хемки Мадера, Херардо Тарасена, Донни Боас, Джеймс Мартинес, Ричи Местре и др.

    Описание фильма

    Тереза покидает Мексику после того, как убивают её приятеля-наркокурьера. Обосновавшись в Испании, она стремится стать всевластным в стране контрабандистом наркотиков и отомстить за смерть своего любовника.

    Дата мировой премьеры: 23 июня 2016
    Продолжительность: ~00: 45: 00 серия
    Качество видео: WEB-DLRip
    Перевод: Многоголосый закадровый, профессиональный -LostFilm
    Реклама: присутствуют заставка и логотип LostFilm.
    Видео: XviD, 720x400 (16: 9), ~1257 kb/s
    Аудио Rus: MPEG Layer 3, 48, 0 kHz, 2 ch, 192 kb/s — многоголосый закадровый
    Код:

    Общее
    Полное имя : D:Королева юга (сезон любимого сериала 1) Queen of the South (2016) WEB-DLRip - LostFilmQueen.of. Прикольно все это наверно придумал Уил Смит потратив достаточно времени. the.South.S01E01.rus.LostFilm.TV.avi
    Формат : AVI
    Формат/Информация : Audio Video Interleave
    Размер файла : 474 Мбайт
    Продолжительность : 45 м.
    Режим общего битрейта : Переменный
    Общий поток : 1457 Кбит/сек
    Программа кодирования : Nandub v1.0rc2
    Библиотека кодирования : Nandub build 1853/release
    Видео
    Идентификатор : 0
    Формат : MPEG-4 Visual
    Профиль формата : Advanced Simple@L5
    Параметр BVOP формата : Нет
    Параметр QPel формата : Нет
    Параметр GMC формата : Без точки перехода
    Параметр матрицы формата : Default (H.263)
    Идентификатор кодека : XVID
    Идентификатор кодека/Подсказка : XviD
    Продолжительность : 45 м.
    Битрейт : 1257 Кбит/сек
    Ширина : 720 пикселей
    Высота : 400 пикселей
    Соотношение сторон : 16:9
    Частота кадров : 23, 976 (23976/1000) кадра/сек
    Цветовое пространство : YUV
    Субдискретизация насыщенности : 4:2:0
    Битовая глубина : 8 бит
    Тип развёртки : Прогрессивная
    Метод сжатия : С потерями
    Бит/(Пиксели*Кадры) : 0.182
    Размер потока : 409 Мбайт (86%)
    Библиотека кодирования : XviD 1.2.1 (UTC 2008-12-04)
    Аудио
    Идентификатор : 1
    Формат : MPEG Audio
    Версия формата : Version 1
    Профиль формата : Layer 3
    Режим : Joint stereo
    Расширение режима : MS Stereo
    Идентификатор кодека : 55
    Идентификатор кодека/Подсказка : MP3
    Продолжительность : 45 м.
    Вид битрейта : Переменный
    Битрейт : 192 Кбит/сек
    Каналы : 2 канала
    Частота : 48, 0 КГц
    Метод сжатия : С потерями
    Размер потока : 60, 9 Мбайт (13%)
    Выравнивание : Соединение по промежуткам
    Продолжительность промежутка : 24 мс. (0, 58 видеокадр)
    Время предзагрузки промежутка : 471 мс.
    Библиотека кодирования : LAME3.97b
    Настройки программы : -m j -V 4 -q 3 -lowpass 18.6 --abr 192


    Скриншоты для ознакомления




    Онлайн видео Королева юга



    Королева юга/Queen of the South (2016) WEB-DLRip (сезон 1, серии 1 из 13) LostFilm (обновляемая)
    загрузка...
    Рейтинг →
     (голосов: 1, оценка 3/5, голосовать можно 1 раз )

    Другие торренты по теме:

  • Королева / Queen (2014) HDRip скачать через торрент бесплатно
  • Королева Марго / La reine Margot / Queen Margot (1994) BDRip [H.264 / 720p-LQ] [Hi10P] [New Directors Cut]
  • Royal Detective: Queen of Shadows / Королевский Детектив. Королева Теней (2014) [Ru] Unofficial [Collector’s Edition / Коллекционное издание] скачать через торрент бесплатно
  • Африканская королева / The African Queen (1951) BDRip [H.264 / 720p] скачать через торрент бесплатно
  • Animal Planet. Королева львов / The Lion Queen (2015) HDTVRip [Серии 1-6 из 6] скачать через торрент бесплатно
  • Grim Tales 4: The Stone Queen / Страшные сказки. Каменная королева (2013) [Ru] Unofficial [Collectors Edition / Коллекционное издание] скачать через торрент бесплатно
  • Королева скота из Монтаны / Cattle Queen of Montana (1954) DVDRip [H.264] [VO] скачать через торрент бесплатно
  • Dark Parables 9: Queen of Sands / Темные притчи 9: Королева песков (2015) [Ru] Unofficial [Collectors Edition / Коллекционное издание] скачать через торрент бесплатно


    • Комментарии (0):

      Информация

      Информация

        Посетители, находящиеся в группе Гости, не могут оставлять комментарии в данной новости.

        ↓ Меню




        ↓ Опрос

        Вы добавили сайт в закладки?
        Да
        Нет


        Top 10 за месяц (Фильмы)