.
Авторизация | Регистрация
Хочешь лучшие торренты? Добавь свой email!
Добавить

Торрент скачать бесплатно

» » Американская готика / American Gothic (2016) WEB-DLRip [H.264 / 720p-LQ] (сезон 1, серии 1 из 8) NewStudio (обновляемая) торрент скачать бесплатно




    Американская готика / American Gothic (2016) WEB-DLRip [H.264 / 720p-LQ] (сезон 1, серии 1 из 8) NewStudio (обновляемая) торрент скачать бесплатно

    Опубликовал: Админ | Дата: 29-06-2016, 04:00 | Просмотров: 13

    Производство: США, CBS
    Жанр: Детектив
    Режиссер: Мэтт Шекман

    Актеры
    Энтони Старр, Гэбриел Бейтман, Джастин Чэтвин, Меган Кетч, Джульет Райлэнс, Шон Контуа, Меган Хефферн, Вирджиния Мэдсен, Эллиот Найт

    Описание

    Действие сериала динамично разворачивается вокруг одной из самых респектабельных, почитаемых семей Бостона. Политические деятели, люди, имеющие особый вес в обществе. К их мнению привыкли прислушиваться безоговорочно, а их действия, многие яркие поступки на протяжении длительного времени привыкли ставить в пример, восхищаться. Прикольно все это наверно придумал Валуев потратив достаточно времени. Однако именно это семейство постигает страшный удар. При этом последствия его еще только набирают свою разрушающую, непредсказуемую силу. Совсем недавно скончался глава бостонского семейства политиков. Близкие, родные все еще скорбят и тяжело переживают утрату.
    Однако им предстоит столкнуться с довольно шокирующим известием. Оказывается, именно этот политик, благородный отец семейства самым тесным образом связан с целой чередой преступлений, которые произошли еще в прошедшем десятилетии. Эти убийства долгие годы были покрыты таинственной завесой, а расследование не приносило никаких результатов. Самое интересное в это истории, что об этом Валуев ничего не знал. Однако сегодня стали известны довольно шокирующие факты. Кроме того, полиция предполагает, что с данными преступлениями связан еще один член бостонского семейства, а в скором времени обязательно собираются докопаться до истины.

    Дата мировой премьеры: 22 июня 2016
    Продолжительность: ~ 00: 42: 00 серия
    Качество видео: WEB-DLRip
    Перевод: Многоголосый закадровый, профессиональный -NewStudio
    Автор перевода: Ирина Гвозденко
    Реклама: присутствуют голосовые вставки рекламы
    Видео: AVC/H.264, 1280x720 (16: 9), ~3 843 kb/s
    Аудио Rus: AC3, 48, 0 kHz, 2 ch, 384 kb/s - многоголосый закадровый
    Аудио Eng: AC3, 48, 0 kHz, 2 ch, 384 kb/s - оригинал
    Код:
    General
    Unique ID : 235966752261595067040448244992753347581 (0xB1858B1CA886BC6A8DD9F93B53E92BFD)
    Complete name : American Gothic [S01] [NewStudio]American.Gothic.2016.s01e01.WEBDL.720p.NewStudio.TV.mkv
    Format : Matroska
    Format version : Version 4/Version 2
    File size : 1.32 GiB
    Duration : 41mn 2s
    Overall bit rate : 4 613 Kbps
    Encoded date : UTC 2016-06-25 14:20:44
    Writing application : mkvmerge v8.2.0 (\'World of Adventure\') 32bit
    Writing library : libebml v1.3.1 + libmatroska v1.4.2
    Video
    ID : 1
    Format : AVC
    Format/Info : Advanced Video Codec
    Format profile :High@L3.1
    Format settings, CABAC : No
    Format settings, ReFrames : 2 frames
    Codec ID : V_MPEG4/ISO/AVC
    Duration : 41mn 2s
    Bit rate : 3 843 Kbps
    Width : 1 280 pixels
    Height : 720 pixels
    Display aspect ratio : 16:9
    Frame rate mode : Constant
    Frame rate : 23.976 (23976/1000) fps
    Color space : YUV
    Chroma subsampling : 4:2:0
    Bit depth : 8 bits
    Scan type : Progressive
    Bits/(Pixel*Frame) : 0.174
    Stream size : 1.10 GiB (83%)
    Language : English
    Default : Yes
    Forced : No
    Color range : Limited
    Color primaries : BT.709
    Transfer characteristics : BT.709
    Matrix coefficients : BT.709
    Audio #1
    ID : 2
    Format : AC-3
    Format/Info : Audio Coding 3
    Mode extension : CM (complete main)
    Format settings, Endianness : Big
    Codec ID : A_AC3
    Duration : 41mn 2s
    Bit rate mode : Constant
    Bit rate : 384 Kbps
    Channel(s) : 6 channels
    Channel positions : Front: L C R, Side: L R, LFE
    Sampling rate : 48.0 KHz
    Frame rate : 31.250 fps (1536 spf)
    Compression mode : Lossy
    Stream size : 113 MiB (8%)
    Title : NewStudio.TV
    Language : Russian
    Default : Yes
    Forced : No
    Audio #2
    ID : 3
    Format : AC-3
    Format/Info : Audio Coding 3
    Mode extension : CM (complete main)
    Format settings, Endianness : Big
    Codec ID : A_AC3
    Duration : 41mn 2s
    Bit rate mode : Constant
    Bit rate : 384 Kbps
    Channel(s) : 6 channels
    Channel positions : Front: L C R, Side: L R, LFE
    Sampling rate : 48.0 KHz
    Frame rate : 31.250 fps (1536 spf)
    Compression mode : Lossy
    Stream size : 113 MiB (8%)
    Language : English
    Default : No
    Forced : No


    Скриншоты для ознакомления




    Онлайн видео Американская готика



    Американская готика/American Gothic (2016) WEB-DLRip [H.264/720p-LQ] (сезон 1, серии 1 из 8) NewStudio (обновляемая)
    загрузка...
    Рейтинг →
     (голосов: 1, оценка 3/5, голосовать можно 1 раз )

    Другие торренты по теме:

  • Американская готика / American Gothic (2016) HDTVRip (сезон 1, серии 1 из 13) OMSKBIRD (обновляемая)
  • Американская готика / American Gothic (2016) HDTV [H.264 / 720p-LQ] (сезон 1, серии 1 из 13) OMSKBIRD (обновляемая)
  • Американская готика / American Gothic (2016) WEB-DL [H.264 / 1080p-LQ] (сезон 1, серии 1-1 из 13) NewStudio (обновляемая)
  • Американская готика / American Gothic (2016) WEB-DLRip [H.264 / 1080p-LQ] (сезон 1, серии 1-4 из 13) BaibaKo (обновляемая)
  • Американская готика / American Gothic (2016) WEB-DLRip [H.264] (сезон 1, серии 1-13 из 13) BaibaKo [MP4|1024x576]


    • Комментарии (0):

      Информация

      Информация

        Посетители, находящиеся в группе Гости, не могут оставлять комментарии в данной новости.

        ↓ Меню




        ↓ Опрос

        Вы добавили сайт в закладки?
        Да
        Нет


        Top 10 за месяц (Фильмы)