.
Авторизация | Регистрация
Хочешь лучшие торренты? Добавь свой email!
Добавить

Торрент скачать бесплатно

» » Новая кровь / New Blood (2016) HDTVRip [H.264 / 720p-LQ] (сезон 1, серии 1-3 из 7) SunshineStudio (обновляемая) торрент скачать бесплатно




    Новая кровь / New Blood (2016) HDTVRip [H.264 / 720p-LQ] (сезон 1, серии 1-3 из 7) SunshineStudio (обновляемая) торрент скачать бесплатно

    Опубликовал: Админ | Дата: 25-06-2016, 12:47 | Просмотров: 107

    Производство: Великобритания
    Жанр: Детектив, Криминал, Драма
    Режиссер: Энтони Филипсон, Билл Иглз

    Актеры
    Эрион Бакаре, Дориан Лок, Марк Стрепан, Бен Тавассоли, Rachel Palmer, Аийша Харт, Марк Боннар, Мандана Джонс, Мэтт Бардок, Slawomir Doliniec

    Описание

    Сериал повествует о молодых следователях Стефане и России, которых объединяют два, казалось бы, не связанных между собой дела.

    Дата мировой премьеры: 2 июня 2016
    Релиз от: SunshineStudio
    Продолжительность: ~00: 56: 00 серия
    Качество видео: HDTVRip
    Перевод: Двуголосый закадровый, любительский - SunshineStudio
    Реклама: присутствуют аудио, видео вставки рекламы.
    Видео: AVC/H.264, 1280x720, ~2137 Кбит/сек
    Аудио Rus: AC3, 2 ch, 192 Кбит/сек
    Код:

    Общее
    Уникальный идентификатор : 241299317459105012992960177437200400928 (0xB5888EE00001F8589F0402340DACC220)
    Полное имя : H:СериалыНовая кровь New Blood (2016) 1 сезон любимого сериалаNew Blood.S01.720р.HDTVRip.SunshinestudioNew Blood.S01E01.720р.HDTVRip.Sunshinestudio.mkv
    Формат : Matroska
    Версия формата : Version 4/Version 2
    Размер файла : 922 Мбайт
    Продолжительность : 55 м.
    Общий поток : 2331 Кбит/сек
    Дата кодирования : UTC 2016-06-16 17:26:47
    Программа кодирования : mkvmerge v8.8.0 (\'Wind at my back\') 64bit
    Библиотека кодирования : libebml v1.3.3 + libmatroska v1.4.4
    Видео
    Идентификатор : 1
    Формат : AVC
    Формат/Информация : Advanced Video Codec
    Профиль формата :Baseline@L3.1
    Параметр CABAC формата : Нет
    Параметр ReFrames формата : 2 кадра
    Параметр GOP формата : M=1, N=24
    Идентификатор кодека : V_MPEG4/ISO/AVC
    Продолжительность : 55 м.
    Битрейт : 2137 Кбит/сек
    Ширина : 1280 пикселей
    Высота : 720 пикселей
    Соотношение сторон : 16:9
    Режим частоты кадров : Постоянный
    Частота кадров : 24, 000 кадра/сек
    Цветовое пространство : YUV
    Субдискретизация насыщенности : 4:2:0
    Битовая глубина : 8 бит
    Тип развёртки : Прогрессивная
    Бит/(Пиксели*Кадры) : 0.097
    Размер потока : 845 Мбайт (92%)
    Default : Да
    Forced : Нет
    Аудио
    Идентификатор : 2
    Формат : AC-3
    Формат/Информация : Audio Coding 3
    Расширение режима : CM (complete main)
    Параметр Endianness формата : Big
    Идентификатор кодека : A_AC3
    Продолжительность : 55 м.
    Вид битрейта : Постоянный
    Битрейт : 192 Кбит/сек
    Каналы : 2 канала
    Расположение каналов : Front: L R
    Частота : 48, 0 КГц
    Частота кадров : 31, 250 кадров/сек (1536 spf)
    Метод сжатия : С потерями
    Размер потока : 75, 9 Мбайт (8%)
    Default : Да
    Forced : Нет


    Скриншоты для ознакомления




    Онлайн видео Новая кровь



    Новая кровь/New Blood (2016) HDTVRip [H.264/720p-LQ] (сезон 1, серии 1-3 из 7) SunshineStudio (обновляемая)
    загрузка...
    Рейтинг →
     (голосов: 1, оценка 3/5, голосовать можно 1 раз )

    Другие торренты по теме:

  • Пятница 13 – Часть 7: Новая кровь / Friday the 13th Part VII: The New Blood (1988) BDRemux [1080p]


    • Комментарии (0):

      Информация

      Информация

        Посетители, находящиеся в группе Гости, не могут оставлять комментарии в данной новости.

        ↓ Меню




        ↓ Опрос

        Вы добавили сайт в закладки?
        Да
        Нет


        Top 10 за месяц (Фильмы)