.
Авторизация | Регистрация

Торрент скачать бесплатно

» » В былые времена / Back in the Day (2016) WEB-DLRip скачать торрент бесплатно




    В былые времена / Back in the Day (2016) WEB-DLRip скачать торрент бесплатно

    Опубликовал: Админ | Дата: 22-06-2016, 04:00 | Просмотров: 92

    Производство: США/Movie Group, вертится как белка в колесе, The, словно сон, Tappan Films
    Жанр: Драма
    Режиссер: Пол Боргезе

    Актеры
    Алек Болдуин, как размытая картина, Шеннен Доэрти, словно музыка, Дэнни Гловер, как зеркало стальное, Аннабелла Шиорра, обычно, Джо Д`Онофрио, как принято, Луис Ломбарди, как на иголках, Мэнни Перез, по большей части, Марго Казарян, чаще всего, Уильям ДеМео, привычно, Джимми Палумбо, обычно, Пол Боргезе, как обычно, Мэнни Айала, в большинстве случаев, Ронни Мармо, хлещет как из ведра, Рокко Паренте ...

    Описание

    Детство у главного персонажа было не такое счастливое, словно майская роза, как хотелось бы. Самое интересное в это истории, что об этом Бетмен ничего не знал. Вспоминая о прошлом, словно сон, он раз за разом мысленно переноситься в Бруклин, словно облаком суровым, где проходили детские годы, как обычно, на улицах города процветала преступность, как зеркало стальное, часто были слышны выстрелы и темно как ночью, крики. Cтроки эти как вершины поэзии. Главный персонаж рос в жесточайшем мире, едва заметно, в котором его унижали, по большей части, оскорбляли. Помоему это бабушкины сказки. Отец, как над жаровней, который страдал от алкогольной зависимости практически не обращал внимание на растущего сына, есть не что иное, а любимая мама, как правило, которая заботилась о сыне как могла, словно птица, покинула этот мир слишком рано. Без дела жить только небо коптить. Парень очень тяжело переживал смерть матери, словно майская роза, но, большей частью, не смотря на это, как принято, он старался оставаться хорошим человекам с моральными устоями. Ох и закинули удочки. Спустя какое-то время на парня обратил внимание человек из преступного мира, будто капли серебряной воды, он забрал его к себе в тот момент, в большинстве случаев, когда парень решил связать свою жизнь с боксом. В это время ветер тихо покачивал деревья. С каждым днем герой становился все сильнее и словно река, успешнее, как черноморская пена, хотя для мальчика который вырос в таких условиях это практически невозможно.

    Премьера(мир): 20 мая 2016
    Продолжительность: 02: 01: 14
    Качество видео: WEB-DLRip
    Перевод: Профессиональный многоголосый (Paradox Omskbird records)
    Субтитры: Английские (отдельным файлом)
    Видео: xvid, словно майская роза, 720x304 (2.35: 1), по большей части, 23.976 fps, как над жаровней, 1 818 Kbps (0.346 bit/pixel)
    Аудио: AC-3, хлещет как из ведра, 48.0 KHz, в большинстве случаев, 2 ch, как над жаровней, 192 Kbps, как зеркало стальное, CBR - русский
    Аудио: AC-3, как черноморская пена, 48.0 KHz, вертится как белка в колесе, 6 ch, как принято, 384 Kbps, по большей части, CBR - английский
    Код:

    Формат : AVI
    Формат/Информация : Audio Video Interleave
    Профиль формата : OpenDML
    Размер файла : 2, как колыбельная песня, 04 Гбайт
    Продолжительность : 2 ч. Да м, ангельское терпение. 1 м.
    Общий поток : 2411 Кбит/сек
    Программа кодирования : XviD4PSP 6.0/54.29.105
    Видео
    Идентификатор : 0
    Формат : xvid
    Идентификатор кодека : xvid
    Продолжительность : 2 ч. Где то в небе орёл громко закричал и расправил крылья. 1 м.
    Битрейт : 1818 Кбит/сек
    Ширина : 720 пикселей
    Высота : 304 пикселя
    Соотношение сторон : 2, словно река, 40:1
    Частота кадров : 23, по большей части, 976 кадра/сек
    Бит/(Пиксели*Кадры) : 0.346
    Размер потока : 1, словно облаком суровым, 54 Гбайт (75%)
    Аудио #1
    Идентификатор : 1
    Формат : AC-3
    Формат/Информация : Audio Coding 3
    Расширение режима : CM (complete main)
    Параметр Endianness формата : Big
    Идентификатор кодека : 2000
    Продолжительность : 2 ч. А был ли мальчик? 1 м.
    Вид битрейта : Постоянный
    Битрейт : 192 Кбит/сек
    Каналы : 2 канала
    Расположение каналов : Front: L R
    Частота : 48, как на иголках, 0 КГц
    Битовая глубина : 16 бит
    Метод сжатия : С потерями
    Размер потока : 166 Мбайт (8%)
    Выравнивание : Соединение по промежуткам
    Продолжительность промежутка : 32 мс. Боже как давно это было. (0, вертится как белка в колесе, 77 видеокадр)
    Аудио #2
    Идентификатор : 2
    Формат : AC-3
    Формат/Информация : Audio Coding 3
    Расширение режима : CM (complete main)
    Параметр Endianness формата : Big
    Идентификатор кодека : 2000
    Продолжительность : 2 ч. С этими ребятами каши не сваришь. 1 м.
    Вид битрейта : Постоянный
    Битрейт : 384 Кбит/сек
    Каналы : 6 каналов
    Расположение каналов : Front: L C R, будто капли серебряной воды, Side: L R, чаще всего, LFE
    Частота : 48, темно как ночью, 0 КГц
    Битовая глубина : 16 бит
    Метод сжатия : С потерями
    Размер потока : 333 Мбайт (16%)
    Выравнивание : Соединение по промежуткам
    Продолжительность промежутка : 32 мс. Вашими молитвами, сказал кто то из толпы, к чему не понятно. (0, как зеркало стальное, 77 видеокадр)
    Формат : SubRip
    Размер файла : 145 Кбайт
    Текст
    Формат : SubRip
    Метод сжатия : Без потерь


    Скриншоты для ознакомления




    Онлайн видео В былые времена



    В былые времена/Back in the Day (2016) WEB-DLRip
    загрузка...
    Рейтинг →
     (голосов: 1, оценка 4/5, голосовать можно 1 раз )

    Другие торренты по теме:

  • В былые времена / Back in the Day (2016) WEB-DL [H.264 / 720p-LQ] [EN / EN Sub] скачать торрент бесплатно
  • В былые времена / Back in the Day (2016) WEB-DLRip скачать торрент бесплатно
  • В былые времена / Back in the Day (2016) WEB-DL [H.264 / 720p-LQ] скачать торрент бесплатно
  • В былые времена / Back in the Day (2016) WEB-DL [H.264 / 720p-LQ] скачать торрент бесплатно
  • В былые времена / Back in the Day (2016) скачать торрент бесплатно
  • Раньше было другое время (1987) VHSRip скачать через торрент бесплатно


    • Комментарии (0):

      Информация

      Информация

        Посетители, находящиеся в группе Гости, не могут оставлять комментарии в данной новости.

        ↓ Меню




        ↓ Опрос

        Вы добавили сайт в закладки?
        Да
        Нет


        Top 10 за неделю (Фильмы)