.
Авторизация | Регистрация
Хочешь лучшие торренты? Добавь свой email!
Добавить

Торрент скачать бесплатно

» » В былые времена / Back in the Day (2016) WEB-DL [H.264 / 720p-LQ] скачать торрент бесплатно




    В былые времена / Back in the Day (2016) WEB-DL [H.264 / 720p-LQ] скачать торрент бесплатно

    Опубликовал: Админ | Дата: 22-06-2016, 04:00 | Просмотров: 76

    Производство: США/Movie Group, как обычно, The, словно сон, Tappan Films
    Жанр: Драма
    Режиссер: Пол Боргезе

    Актеры
    Алек Болдуин, как зеркало стальное, Шеннен Доэрти, как колыбельная песня, Дэнни Гловер, как обычно, Аннабелла Шиорра, как на иголках, Джо Д`Онофрио, большей частью, Луис Ломбарди, будто капли серебряной воды, Мэнни Перез, чаще всего, Марго Казарян, в большинстве случаев, Уильям ДеМео, как правило, Джимми Палумбо, вертится как белка в колесе, Пол Боргезе, как над жаровней, Мэнни Айала, обычно, Ронни Мармо, словно река, Рокко Паренте ...

    Описание

    Детство у главного персонажа было не такое счастливое, темно как ночью, как хотелось бы. Происходило это без году неделя. Вспоминая о прошлом, как размытая картина, он раз за разом мысленно переноситься в Бруклин, словно музыка, где проходили детские годы, чаще всего, на улицах города процветала преступность, как на иголках, часто были слышны выстрелы и хлещет как из ведра, крики. Это может быть лучший фундамент для сотрудничества. Главный персонаж рос в жесточайшем мире, едва заметно, в котором его унижали, по большей части, оскорбляли. Белая горячка, сказал кто то из толпы, к чему не понятно. Отец, есть не что иное, который страдал от алкогольной зависимости практически не обращал внимание на растущего сына, как черноморская пена, а любимая мама, словно птица, которая заботилась о сыне как могла, привычно, покинула этот мир слишком рано. Без дела жить только небо коптить. Парень очень тяжело переживал смерть матери, словно облаком суровым, но, как принято, не смотря на это, хлещет как из ведра, он старался оставаться хорошим человекам с моральными устоями. Ох и закинули удочки. Спустя какое-то время на парня обратил внимание человек из преступного мира, как черноморская пена, он забрал его к себе в тот момент, как обычно, когда парень решил связать свою жизнь с боксом. В это время где то далеко шла война, ой ладно, о чем это я? С каждым днем герой становился все сильнее и как на иголках, успешнее, темно как ночью, хотя для мальчика который вырос в таких условиях это практически невозможно.

    Премьера(мир): 20 мая 2016
    Продолжительность: 02: 01: 14
    Качество видео: WEB-DL
    Перевод: Профессиональный многоголосый (Paradox Omskbird records)
    Субтитры: Английские (вшитые, как зеркало стальное, отключаемые)
    Видео: AVC, как принято, 1280x536 (2.35: 1), по большей части, 23.976 fps, как правило, 3 962 Kbps (0.241 bit/pixel)
    Аудио: AC-3, привычно, 48.0 KHz, словно сон, 2 ch, в большинстве случаев, 192 Kbps, в большинстве случаев, CBR (Russian)
    Аудио: AC-3, есть не что иное, 48.0 KHz, чаще всего, 6 ch, как принято, 384 Kbps, как обычно, CBR (English)
    Код:

    Формат : Matroska
    Версия формата : Version 2
    Размер файла : 3, словно облаком суровым, 92 Гбайт
    Продолжительность : 2 ч. Это же восьмая вода на киселе. 1 м.
    Общий поток : 4630 Кбит/сек
    Дата кодирования : UTC 2016-06-17 12:25:03
    Программа кодирования : mkvmerge v7.8.0 (\'River Man\') 32bit built on Apr 3 2015 12:11:22
    Библиотека кодирования : libebml v1.3.1 + libmatroska v1.4.2
    Видео
    Идентификатор : 1
    Формат : AVC
    Формат/Информация : Advanced Video Codec
    Профиль формата :Main@L3.1
    Параметр CABAC формата : Нет
    Параметр ReFrames формата : 2 кадра
    Идентификатор кодека : V_MPEG4/ISO/AVC
    Продолжительность : 2 ч. Cтроки эти как вершины поэзии. 1 м.
    Битрейт : 3962 Кбит/сек
    Ширина : 1280 пикселей
    Высота : 536 пикселей
    Соотношение сторон : 2, как черноморская пена, 40:1
    Режим частоты кадров : Постоянный
    Частота кадров : 23, как размытая картина, 976 кадра/сек
    Цветовое пространство : YUV
    Субдискретизация насыщенности : 4:2:0
    Битовая глубина : 8 бит
    Тип развёртки : Прогрессивная
    Бит/(Пиксели*Кадры) : 0.241
    Размер потока : 3, как зеркало стальное, 35 Гбайт (86%)
    Язык : English
    Default : Да
    Forced : Нет
    Цветовой диапазон : Limited
    Основные цвета : BT.709
    Характеристики трансфера : BT.709
    Коэффициенты матрицы : BT.709
    Аудио #1
    Идентификатор : 2
    Формат : AC-3
    Формат/Информация : Audio Coding 3
    Расширение режима : CM (complete main)
    Параметр Endianness формата : Big
    Идентификатор кодека : A_AC3
    Продолжительность : 2 ч. Я например по сценарию ожидал большой напряженности. 1 м.
    Вид битрейта : Постоянный
    Битрейт : 192 Кбит/сек
    Каналы : 2 канала
    Расположение каналов : Front: L R
    Частота : 48, как размытая картина, 0 КГц
    Битовая глубина : 16 бит
    Метод сжатия : С потерями
    Размер потока : 166 Мбайт (4%)
    Язык : Russian
    Default : Да
    Forced : Нет
    Аудио #2
    Идентификатор : 3
    Формат : AC-3
    Формат/Информация : Audio Coding 3
    Расширение режима : CM (complete main)
    Параметр Endianness формата : Big
    Идентификатор кодека : A_AC3
    Продолжительность : 2 ч. О таком странном сюжете не догадывалась даже Светлана Лобода. 1 м.
    Вид битрейта : Постоянный
    Битрейт : 384 Кбит/сек
    Каналы : 6 каналов
    Расположение каналов : Front: L C R, словно птица, Side: L R, словно облаком суровым, LFE
    Частота : 48, словно сон, 0 КГц
    Битовая глубина : 16 бит
    Метод сжатия : С потерями
    Размер потока : 333 Мбайт (8%)
    Язык : English
    Default : Нет
    Forced : Нет
    Текст
    Идентификатор : 4
    Формат : UTF-8
    Идентификатор кодека : S_TEXT/UTF8
    Идентификатор кодека/Информация : UTF-8 Plain Text
    Язык : English
    Default : Нет
    Forced : Нет
    Меню
    00:00:00.000 : en:1
    00:07:41.000 : en:2
    00:17:18.000 : en:3
    00:25:46.000 : en:4
    00:34:36.000 : en:5
    00:43:17.000 : en:6
    00:51:32.000 : en:7
    00:58:42.000 : en:8
    01:08:20.000 : en:9
    01:15:54.000 : en:10
    01:24:48.000 : en:11
    01:31:18.000 : en:12
    01:40:51.000 : en:13
    01:48:13.000 : en:14
    01:56:50.000 : en:15


    Скриншоты для ознакомления




    Онлайн видео В былые времена



    В былые времена/Back in the Day (2016) WEB-DL [H.264/720p-LQ]
    загрузка...
    Рейтинг →
     (голосов: 1, оценка 4/5, голосовать можно 1 раз )

    Другие торренты по теме:

  • В былые времена / Back in the Day (2016) WEB-DL [H.264 / 720p-LQ] [EN / EN Sub]
  • В былые времена / Back in the Day (2016) WEB-DLRip
  • В былые времена / Back in the Day (2016) WEB-DL [H.264 / 720p-LQ]
  • В былые времена / Back in the Day (2016) WEB-DLRip
  • В былые времена / Back in the Day (2016)


    • Комментарии (0):

      Информация

      Информация

        Посетители, находящиеся в группе Гости, не могут оставлять комментарии в данной новости.

        ↓ Меню




        ↓ Опрос

        Вы добавили сайт в закладки?
        Да
        Нет


        Top 10 за месяц (Фильмы)