.
Авторизация | Регистрация
Хочешь лучшие торренты? Добавь свой email!
Добавить

Торрент скачать бесплатно

» » Боевой киносборник (Выпуски 1-3, 7 из 12) (1941-1942) DVDRip [H.264] (Обновляемая) торрент скачать бесплатно




    Боевой киносборник (Выпуски 1-3, 7 из 12) (1941-1942) DVDRip [H.264] (Обновляемая) торрент скачать бесплатно

    Опубликовал: Админ | Дата: 22-06-2016, 04:00 | Просмотров: 52

    Производство: СССР
    Жанр: Военный, Драма, Комедия
    Режиссер: Сергей Герасимов, Константин Юдин, Серге Юткевич и др.

    Актеры
    Борис Чирков, Марина Ладынина, Владимир Грибков, Людмила Шабалина, Константин Сорокин, Николай Крючков, Елизавета Кузюрина, Николай Трофимов и др.

    Описание

    Боевые киносборники – это пропагандистские художественно-документальные фильмы, снятые в начале ВОВ, состоящие из нескольких коротких новелл каждый, иногда объединенные общим сюжетом. Первый киносборник вышел на экраны 2 августа 1941 года. Для популяризации привлекались известные деятели искусств, такие как: Борис Чирков, Любовь Орлова, Владимир Канцель, Эраст Гарин, Сергей Мартинсон, Пётр Алейников, Зоя Фёдорова, Сергей Герасимов и многие, многие другие знаменитости того времени.

    Возраст: 0+ (для любой зрительской аудитории)
    Релиз от: mebf109
    Продолжительность: ~ 00: 50: 00 каждый выпуск
    Качество видео: DVDRip
    Видео: AVC/H.264, 720х544, ~1960 Kbps, 0, 200 bit/pixel
    Аудио: AC3, 2 ch, ~192 Kbps, CBR
    Код:

    General
    Unique ID : 208032046541920083870529965716999640664 (0x9C8183C8CCF56AE9BAD9E3BD6C9E1658)
    Complete name : D:ПробаБоевой киносборник1.Б.К.-1(1941)DVDRip.by.mebf109.mkv
    Format : Matroska
    Format version : Version 2
    File size : 499 MiB
    Duration : 32mn 22s
    Overall bit rate : 2 153 Kbps
    Encoded date : UTC 2016-06-13 19:23:36
    Writing application : mkvmerge v6.1.0 (\'Old Devil\') built on Mar 4 2013 09:10:42
    Writing library : libebml v1.3.0 + libmatroska v1.4.0
    Video
    ID : 1
    Format : AVC
    Format/Info : Advanced Video Codec
    Format profile :High@L4.1
    Format settings, CABAC : Yes
    Format settings, ReFrames : 7 frames
    Codec ID : V_MPEG4/ISO/AVC
    Duration : 32mn 22s
    Bit rate : 1 960 Kbps
    Width : 720 pixels
    Height : 544 pixels
    Display aspect ratio : 4:3
    Frame rate mode : Constant
    Frame rate : 25.000 fps
    Color space : YUV
    Chroma subsampling : 4:2:0
    Bit depth : 8 bits
    Scan type : Progressive
    Bits/(Pixel*Frame) : 0.200
    Stream size : 444 MiB (89%)
    Writing library : x264 core 130 r2273 b3065e6
    Encoding settings : cabac=1/ref=7/deblock=1:0:0/analyse=0x3:0x133/me=umh/subme=10/psy=1/psy_rd=1.00:0.00/mixed_ref=1/me_range=32/chroma_me=1/trellis=2/8x8dct=1/cqm=0/deadzone=21, 11/fast_pskip=0/chroma_qp_offset=-2/threads=3/lookahead_threads=1/sliced_threads=0/nr=0/decimate=0/interlaced=0/bluray_compat=0/constrained_intra=0/bframes=3/b_pyramid=2/b_adapt=2/b_bias=0/direct=3/weightb=1/open_gop=0/weightp=2/keyint=250/keyint_min=25/scenecut=40/intra_refresh=0/rc_lookahead=60/rc=2pass/mbtree=1/bitrate=1960/ratetol=1.0/qcomp=0.60/qpmin=0/qpmax=69/qpstep=4/cplxblur=20.0/qblur=0.5/ip_ratio=1.40/aq=1:1.00
    Default : Yes
    Forced : No
    Audio
    ID : 2
    Format : AC-3
    Format/Info : Audio Coding 3
    Mode extension : CM (complete main)
    Format settings, Endianness : Big
    Codec ID : A_AC3
    Duration : 32mn 22s
    Bit rate mode : Constant
    Bit rate : 192 Kbps
    Channel(s) : 2 channels
    Channel positions : Front: L R
    Sampling rate : 48.0 KHz
    Compression mode : Lossy
    Stream size : 44.5 MiB (9%)
    Default : Yes
    Forced : No


    Скриншоты для ознакомления




    Онлайн видео Боевой киносборник (Выпуски 1



    Боевой киносборник (Выпуски 1-3, 7 из 12) (1941-1942) DVDRip [H.264] (Обновляемая)
    загрузка...
    Рейтинг →
     (голосов: 1, оценка 4/5, голосовать можно 1 раз )

    Другие торренты по теме:

  • Боевой киносборник № 7 (1941) DVDRip [H.264]


    • Комментарии (0):

      Информация

      Информация

        Посетители, находящиеся в группе Гости, не могут оставлять комментарии в данной новости.

        ↓ Меню




        ↓ Опрос

        Вы добавили сайт в закладки?
        Да
        Нет


        Top 10 за месяц (Фильмы)