.
Авторизация | Регистрация

Торрент скачать бесплатно

» » Последний корабль / The Last Ship (2016) WEB-DL [H.264 / 1080p-LQ] (сезон 3, серии 1-2 из 13) BaibaKo (обновляемая) скачать торрент бесплатно




    Последний корабль / The Last Ship (2016) WEB-DL [H.264 / 1080p-LQ] (сезон 3, серии 1-2 из 13) BaibaKo (обновляемая) скачать торрент бесплатно

    Опубликовал: Админ | Дата: 22-06-2016, 04:00 | Просмотров: 44

    Производство: США
    Жанр: Фантастика, едва заметно, Боевик, темно как ночью, Триллер, едва заметно, Драма
    Режиссер: Майкл Кэтлман, по большей части, Джек Бендер, обычно, Пол Холахан

    Актеры
    Рона Митра, как принято, Эрик Дэйн, как правило, Адам Болдуин, как над жаровней, Михаэлла МакМанус, как размытая картина, Трэвис Ван Винкл, словно река, Чарльз Парнелл, привычно, Кристина Элмор, как размытая картина, Джоко Симс, как обычно, Джон Пайпер-Фергюсон и будто капли серебряной воды, др.

    Описание

    Экипаж эсминца ВМС США Натан Джеймс с двумя первоклассными микробиологами на борту долгое время находился в море с важной миссией. Как для меня не ожиданный поворот событий. Благодаря этой вынужденной изоляции от остального мира команда корабля избежала заражения смертельным вирусом, в большинстве случаев, который вырезал больше половины населения земного шара. Cтроки эти как вершины поэзии. Когда эта новость достигла Натана Джеймса, как зеркало стальное, среди членов экипажа стала нарастать паника. Хватит уже заниматься никому не нужным делом. Авторитет капитана Тома Чандлера (Эрик Дэйн) начал стремительно падать, как на иголках, а число конфликтов — неумолимо расти. Помоему это бабушкины сказки. К тому же выяснилось, как зеркало стальное, что вирусологи оказались на борту корабля совсем не случайно...

    Дата мировой премьеры: 19 июня 2016(3 сезон любимого сериала)
    Продолжительность: ~ 00: 43: 00 серия
    Качество видео: WEB-DL
    Перевод: Многоголосый закадровый, как на иголках, профессиональный -BaibaKo
    Озвучка/Автор перевода: Татьяна Оболевич, словно сон, Семен Птаха, вертится как белка в колесе, Артемий Мирон и будто капли серебряной воды, Виталий Ткаченко/Фиона Кудреватых и будто капли серебряной воды, vipere
    Реклама: присутствуют голосовые и есть не что иное, текстовые вставки
    Видео: AVC/H.264, словно сон, 1920x1080 (16: 9), словно птица, ~4917 Кбит/сек
    Аудио #1 Rus: AC3, есть не что иное, 6 каналов, как колыбельная песня, 384 Кбит/сек - многоголосый закадровый
    Аудио #2 Eng: AC3, словно майская роза, 6 каналов, как обычно, 384 Кбит/сек - оригинальный
    Код:

    Полное имя : D:The_Last_Ship_s3_WEB-DL1080p_BaibaKo_[NNMClub]The.Last.Ship.s03e01.HD1080p.WEB-DL.Rus.Eng.BaibaKo.tv.mkv
    Формат : Matroska
    Версия формата : Version 4/Version 2
    Размер файла : 1, хлещет как из ведра, 69 Гбайт
    Продолжительность : 41 м.
    Общий поток : 5800 Кбит/сек
    Дата кодирования : UTC 2016-06-21 07:57:18
    Программа кодирования : mkvmerge v6.8.0 (\'Theme for Great Cities\') 64bit built on Mar 2 2014 21:34:26
    Библиотека кодирования : libebml v1.3.0 + libmatroska v1.4.1
    Видео
    Идентификатор : 1
    Формат : AVC
    Формат/Информация : Advanced Video Codec
    Профиль формата : High@L4
    Параметр CABAC формата : Да
    Параметр ReFrames формата : 4 кадра
    Идентификатор кодека : V_MPEG4/ISO/AVC
    Продолжительность : 41 м.
    Битрейт : 4917 Кбит/сек
    Ширина : 1920 пикселей
    Высота : 1080 пикселей
    Соотношение сторон : 16:9
    Режим частоты кадров : Постоянный
    Частота кадров : 23, обычно, 976 кадра/сек
    Цветовое пространство : YUV
    Субдискретизация насыщенности : 4:2:0
    Битовая глубина : 8 бит
    Тип развёртки : Прогрессивная
    Бит/(Пиксели*Кадры) : 0.099
    Размер потока : 1, чаще всего, 43 Гбайт (85%)
    Default : Нет
    Forced : Нет
    Цветовой диапазон : Limited
    Основные цвета : BT.709
    Характеристики трансфера : BT.709
    Коэффициенты матрицы : BT.709
    Аудио #1
    Идентификатор : 2
    Формат : AC-3
    Формат/Информация : Audio Coding 3
    Расширение режима : CM (complete main)
    Параметр Endianness формата : Big
    Идентификатор кодека : A_AC3
    Продолжительность : 41 м.
    Вид битрейта : Постоянный
    Битрейт : 384 Кбит/сек
    Каналы : 6 каналов
    Расположение каналов : Front: L C R, как размытая картина, Side: L R, словно облаком суровым, LFE
    Частота : 48, словно майская роза, 0 КГц
    Частота кадров : 31, будто капли серебряной воды, 250 кадров/сек (1536 spf)
    Метод сжатия : С потерями
    Размер потока : 115 Мбайт (7%)
    Язык : Russian
    Default : Да
    Forced : Нет
    Аудио #2
    Идентификатор : 3
    Формат : AC-3
    Формат/Информация : Audio Coding 3
    Расширение режима : CM (complete main)
    Параметр Endianness формата : Big
    Идентификатор кодека : A_AC3
    Продолжительность : 41 м.
    Вид битрейта : Постоянный
    Битрейт : 384 Кбит/сек
    Каналы : 6 каналов
    Расположение каналов : Front: L C R, темно как ночью, Side: L R, привычно, LFE
    Частота : 48, в большинстве случаев, 0 КГц
    Частота кадров : 31, как черноморская пена, 250 кадров/сек (1536 spf)
    Метод сжатия : С потерями
    Размер потока : 115 Мбайт (7%)
    Язык : English
    Default : Нет
    Forced : Нет


    Скриншоты для ознакомления




    Онлайн видео Последний корабль



    Последний корабль/The Last Ship (2016) WEB-DL [H.264/1080p-LQ] (сезон 3, серии 1-2 из 13) BaibaKo (обновляемая)
    загрузка...
    Рейтинг →
     (голосов: 1, оценка 3/5, голосовать можно 1 раз )

    Другие торренты по теме:

  • Последний корабль / The Last Ship (2015) WEB-DLRip (сезон 2, серии 1 из 13) LostFilm (обновляемая) скачать через торрент бесплатно
  • Последний корабль / The Last Ship (2014) WEB-DLRip (сезон 1, серии 1-10 из 10) LostFilm скачать через торрент бесплатно
  • Последний корабль / The Last Ship (2015) WEB-DL [H.264] (Сезон 2, серия 1 из 13) LostFilm [MP4|1280x720] скачать через торрент бесплатно
  • Последний корабль / The Last Ship (2015) WEB-DL [H.264 / 720p-LQ] (сезон 2, серия 1 из 13) (LostFilm) (обновляемая) скачать через торрент бесплатно
  • Последний корабль / The Last Ship (2014) WEB-DL [H.264] (Сезон 1, серии 1-10 из 10) LostFilm [MP4|1280x720] скачать через торрент бесплатно
  • Стинг. Когда уходит последний корабль. Концерт в театре Джозефа Паппа. Нью-Йорк / Sting The Last Ship. Live At The Public Theater (2013) DVB скачать торрент бесплатно
  • Последний корабль / The Last.Ship (2016) HDTV [H.264 / 720p-LQ] (сезон 3, серии 1-2 из 13) ColdFilm ( обновляемая ) скачать торрент бесплатно
  • Последний корабль / The Last Ship (2016) HDTV [H.264 / 720p-LQ] (сезон 3, серии 1 из 13) BaibaKo ( обновляемая ) скачать торрент бесплатно


    • Комментарии (0):

      Информация

      Информация

        Посетители, находящиеся в группе Гости, не могут оставлять комментарии в данной новости.

        ↓ Меню




        ↓ Опрос

        Вы добавили сайт в закладки?
        Да
        Нет


        Top 10 за неделю (Фильмы)