.
Авторизация | Регистрация
Хочешь лучшие торренты? Добавь свой email!
Добавить

Торрент скачать бесплатно

» » Экипаж (2016) DVD9 торрент скачать бесплатно




    Экипаж (2016) DVD9 торрент скачать бесплатно

    Опубликовал: Админ | Дата: 21-06-2016, 04:00 | Просмотров: 64

    Производство: Россия/Студия Тритэ
    Жанр: Драма, приключения, триллер
    Режиссер: Николай Лебедев
    Продюсеры: Леонид Верещагин, Антон Златопольский, Никита Михалков

    Актеры
    Данила Козловский, Владимир Машков, Агне Грудите, Сергей Кемпо, Катерина Шпица, Сергей Шакуров, Сергей Газаров, Елена Яковлева, Алёна Бабенко, Сергей Романович

    Описание

    История талантливого молодого летчика Алексея Гущина. Он не признает авторитетов, предпочитая поступать в соответствии с личным кодексом чести. Прикольно все это наверно придумал Китай потратив достаточно времени. За невыполнение абсурдного приказа его выгоняют из военной авиации, и только чудом он получает шанс летать на гражданских самолетах.
    Гущин начинает свою летную жизнь сначала. Его наставник — командир воздушного судна — суровый и принципиальный Леонид Зинченко. Его коллега — второй пилот, неприступная красавица Александра. Отношения складываются непросто. Но на грани жизни и смерти, когда земля уходит из-под ног, вокруг — огонь и пепел и только в небе есть спасение, Гущин показывает все, на что он способен. Только вместе экипаж сможет совершить подвиг и спасти сотни жизней.

    Возраст: 6+ (зрителям, достигшим 6 лет)
    Дата мировой премьеры: 22 апреля 2016
    Дата российской премьеры: 21 апреля 2016, Централ Партнершип
    Продолжительность: 02: 11: 35
    Качество видео: DVD9 R5
    Перевод: Не требуется (Русский, лицензия)
    Субтитры: Отсутствуют
    Видео: MPEG-2, 720x576@1024x576 (PAL 16: 9), ~6700 Kbps
    Аудио: AC3 5.1, 448 Kbps
    Код:
    Title: Экипаж (2016) DVD9 R5
    Size: 6.93 Gb ( 7 261 718, 00 KBytes ) - DVD-9
    Enabled regions: 1, 2, 3, 4, 5, 6, 7, 8
    VTS_01 :
    Play Length: 00:00:15
    Video: PAL 4:3 (720x576) VBR
    Audio:
    Not specified (Dolby AC3, 2 ch)
    VTS_02 :
    Play Length: 00:00:05
    Video: PAL 16:9 (720x576) VBR, Auto Letterboxed
    Audio:
    Not specified (Dolby AC3, 2 ch)
    VTS_03 :
    Play Length: 02:11:35
    Video: PAL 16:9 (720x576) VBR, Auto Letterboxed
    Audio:
    Russian (Dolby AC3, 6 ch)
    VTS_04 :
    Play Length: 00:00:01
    Video: PAL 16:9 (720x576) VBR, Auto Letterboxed
    Audio:
    Russian (Dolby AC3, 2 ch)
    * Menus Information *
    VIDEO_TS Menu
    Video:
    PAL 16:9 (720x576) VBR
    Auto PanScan
    Audio:
    Not specified (LinearPCM, 2 ch)
    English Language Unit :
    Title Menu
    VTS_01 Menu
    Video:
    PAL 16:9 (720x576) VBR
    Auto Letterboxed
    Audio:
    Not specified (Dolby AC3, 2 ch)
    English Language Unit :
    Root Menu
    Chapter (PTT) Menu
    VTS_02 Menu
    Video:
    NTSC 4:3 (720x480) VBR
    Auto PanScan, Auto Letterboxed
    English Language Unit :
    Root Menu
    Chapter (PTT) Menu
    VTS_03 Menu
    Video:
    NTSC 4:3 (720x480) VBR
    Auto PanScan, Auto Letterboxed
    English Language Unit :
    Root Menu
    Chapter (PTT) Menu
    VTS_04 Menu
    Video:
    NTSC 4:3 (720x480) VBR
    Auto PanScan, Auto Letterboxed
    English Language Unit :
    Root Menu
    Chapter (PTT) Menu
    Код:
    Общее
    Полное имя : F:ВидеоЭкипаж (2016) DVD9 R5VIDEO_TSVTS_03_1.VOB
    Формат : MPEG-PS
    Размер файла : 1024 Мбайт
    Продолжительность : 19 м.
    Режим общего битрейта : Переменный
    Общий поток : 7332 Кбит/сек
    Видео
    Идентификатор : 224 (0xE0)
    Формат : MPEG Video
    Версия формата : Version 2
    Профиль формата : Main@Main
    Параметр BVOP формата : Да
    Параметр матрицы формата : По умолчанию
    Параметр GOP формата : M=3, N=12
    Продолжительность : 19 м.
    Вид битрейта : Переменный
    Битрейт : 6738 Кбит/сек
    Максимальный битрейт : 8500 Кбит/сек
    Ширина : 720 пикселей
    Высота : 576 пикселей
    Соотношение сторон : 16:9
    Частота кадров : 25, 000 кадров/сек
    Стандарт вещания : PAL
    Цветовое пространство : YUV
    Субдискретизация насыщенности : 4:2:0
    Битовая глубина : 8 бит
    Тип развёртки : Прогрессивная
    Метод сжатия : С потерями
    Бит/(Пиксели*Кадры) : 0.650
    Временной код первого кадра : 00:00:00:00
    Оригинал временного кода : Group of pictures t_head
    Размер потока : 941 Мбайт (92%)
    Аудио
    Идентификатор : 189 (0xBD)-128 (0x80)
    Формат : AC-3
    Формат/Информация : Audio Coding 3
    Расширение режима : CM (complete main)
    Параметр Endianness формата : Big
    Режим смешивания : DVD-Video
    Продолжительность : 19 м.
    Вид битрейта : Постоянный
    Битрейт : 448 Кбит/сек
    Каналы : 6 каналов
    Расположение каналов : Front: L C R, Side: L R, LFE
    Частота : 48, 0 КГц
    Частота кадров : 31, 250 кадров/сек (1536 spf)
    Метод сжатия : С потерями
    Размер потока : 62, 6 Мбайт (6%)
    Меню


    Скриншоты для ознакомления




    Онлайн видео Король Ральф



    Экипаж (2016) DVD9
    загрузка...
    Рейтинг →
     (голосов: 1, оценка 4/5, голосовать можно 1 раз )

    Другие торренты по теме:

  • Экипаж / Flight (2012) BDRip [H.264]
  • Экипаж (1979) HDTV [1080i]
  • Экипаж / Flight (2013) BDRip [AVO] скачать через торрент бесплатно
  • Экипаж (1979) HDTVRip [H.264]
  • Даниил Любимов | Экипаж (2016) [FB2]
  • Андрей Орлов | Экипаж. Предельный угол атаки (2016) [FB2]
  • Экипаж (2016) CamRip
  • Экипаж (2016) CamRip


    • Комментарии (0):

      Информация

      Информация

        Посетители, находящиеся в группе Гости, не могут оставлять комментарии в данной новости.

        ↓ Меню




        ↓ Опрос

        Вы добавили сайт в закладки?
        Да
        Нет


        Top 10 за месяц (Фильмы)