.
Авторизация | Регистрация
Хочешь лучшие торренты? Добавь свой email!
Добавить

Торрент скачать бесплатно

» » Ведьма / The VVitch: A New-England Folktale (2015) BDRip [H.264 / 1080p] торрент скачать бесплатно




    Ведьма / The VVitch: A New-England Folktale (2015) BDRip [H.264 / 1080p] торрент скачать бесплатно

    Опубликовал: Админ | Дата: 20-06-2016, 04:00 | Просмотров: 676

    Производство: США, Великобритания, Канада, Бразилия
    Жанр: Ужасы, Детектив
    Режиссер: Роберт Эггерс
    Продюсер: Дэниэл Бекерман, Ларс Кнудсен, Джоди Редмонд

    Актеры
    Аня Тейлор-Джой, Ралф Айнесон, Кейт Дики, Харви Скримшо, Элли Грэйнджер, Лукас Доусон, Батшеба Гарнетт, Сара Стефенс, Джулиан Ричингс, Вахаб Каудхри

    Описание

    Семья колонистов покидает плантацию, чтобы жить на уединенной ферме рядом с лесом в Новой Англии. Но вскоре младший ребёнок, ещё младенец, исчезает.

    Рейтинг MPAA: R (лицам до 17 лет обязательно присутствие взрослого)
    Дата мировой премьеры: 23 января 2015
    Продолжительность: 01: 32: 26
    Качество видео: BDRip
    Перевод: Дублированный, Профессиональный многоголосый (Paradox Omskbird records)
    Субтитры: Русские, английские и английские (SDH) – вшитые, отключаемые
    Реклама: Отсутствует
    Видео: AVC, 1792x1080 (1.659), 23.976 fps, 15.5 Mbps (0.333 bit/pixel)
    Аудио: AC-3, 48.0 KHz, 2 ch, 448 Kbps, CBR | Русский (DUB)
    Аудио: DTS, 48.0 KHz, 6 ch, 1510 Kbps, CBR| Русский (MVO, Paradox Omskbird records)
    Аудио: AC-3, 48.0 KHz, 6 ch, 448 Kbps, CBR | Русский (MVO, Paradox Omskbird records)
    Аудио: DTS, 48.0 KHz, 6 ch, 1510 Kbps, CBR | Английский (оригинал)
    Код:

    Формат : Matroska
    Версия формата : Version 4/Version 2
    Размер файла : 12, 8 Гбайт
    Продолжительность : 1 ч. 32 м.
    Общий поток : 19, 8 Мбит/сек
    Название фильма : The.VVitch: A.New-England.Folktale.2015.BDRip....1080p.ExKinoRay
    Дата кодирования : UTC 2016-06-18 11:00:28
    Программа кодирования : mkvmerge v8.3.0 (\'Over the Horizon\') 64bit
    Библиотека кодирования : libebml v1.3.1 + libmatroska v1.4.2
    DURATION : 01:32:26.560000000
    NUMBER_OF_FRAMES : 173330
    NUMBER_OF_BYTES : 310607360
    _STATISTICS_WRITING_APP : mkvmerge v8.3.0 (\'Over the Horizon\') 64bit
    _STATISTICS_WRITING_DATE_UTC : 2016-06-18 11:00:28
    _STATISTICS_TAGS : BPS DURATION NUMBER_OF_FRAMES NUMBER_OF_BYTES
    Видео
    Идентификатор : 1
    Формат : AVC
    Формат/Информация : Advanced Video Codec
    Профиль формата :High@L4.1
    Параметр CABAC формата : Да
    Параметр ReFrames формата : 4 кадра
    Идентификатор кодека : V_MPEG4/ISO/AVC
    Продолжительность : 1 ч. 32 м.
    Битрейт : 15, 5 Мбит/сек
    Ширина : 1792 пикселя
    Высота : 1080 пикселей
    Соотношение сторон : 5:3
    Режим частоты кадров : Постоянный
    Частота кадров : 23, 976 кадра/сек
    Цветовое пространство : YUV
    Субдискретизация насыщенности : 4:2:0
    Битовая глубина : 8 бит
    Тип развёртки : Прогрессивная
    Бит/(Пиксели*Кадры) : 0.333
    Размер потока : 9, 99 Гбайт (78%)
    Заголовок : The.VVitch: A.New-England.Folktale.2015.BDRip.1080p.ExKinoRay.***селезень***
    Библиотека кодирования : x264 core 148 r2665+53 6629127 t_mod_Custom [8-bit@all X86_64]
    Настройки программы : cabac=1/ref=4/deblock=1:-3:-3/analyse=0x3:0x133/me=umh/subme=11/psy=1/fade_compensate=0.00/psy_rd=1.10:0.00/mixed_ref=1/me_range=32/chroma_me=1/trellis=2/8x8dct=1/cqm=0/deadzone=21, 11/fast_pskip=0/chroma_qp_offset=-2/threads=16/lookahead_threads=4/sliced_threads=0/nr=0/decimate=0/interlaced=0/bluray_compat=0/constrained_intra=0/fgo=0/bframes=11/b_pyramid=2/b_adapt=2/b_bias=0/direct=3/weightb=1/open_gop=0/weightp=2/keyint=250/keyint_min=23/scenecut=40/intra_refresh=0/rc_lookahead=150/rc=crf/mbtree=0/crf=18.2000/qcomp=0.70/qpmin=0:0:0/qpmax=69:69:69/qpstep=4/vbv_maxrate=50000/vbv_bufsize=62500/crf_max=0.0/nal_hrd=none/filler=0/ip_ratio=1.20/pb_ratio=1.10/aq=3:0.80/aq-sensitivity=10.00/aq-factor=1.00:1.00:1.00/aq2=0/aq3=0
    Язык : English
    Default : Да
    Forced : Нет
    Цветовой диапазон : Limited
    Коэффициенты матрицы : BT.709
    DURATION : 01:32:26.583000000
    NUMBER_OF_FRAMES : 132985
    NUMBER_OF_BYTES : 10996321471
    _STATISTICS_WRITING_APP : mkvmerge v8.3.0 (\'Over the Horizon\') 64bit
    _STATISTICS_WRITING_DATE_UTC : 2016-06-18 11:00:28
    _STATISTICS_TAGS : BPS DURATION NUMBER_OF_FRAMES NUMBER_OF_BYTES
    Аудио #1
    Идентификатор : 2
    Формат : AC-3
    Формат/Информация : Audio Coding 3
    Расширение режима : CM (complete main)
    Параметр Endianness формата : Big
    Идентификатор кодека : A_AC3
    Продолжительность : 1 ч. Самое интересное в это истории, что об этом Папа Римский ничего не знал. 32 м.
    Вид битрейта : Постоянный
    Битрейт : 448 Кбит/сек
    Каналы : 2 канала
    Расположение каналов : Front: L R
    Частота : 48, 0 КГц
    Битовая глубина : 16 бит
    Метод сжатия : С потерями
    Размер потока : 296 Мбайт (2%)
    Язык : Russian
    Default : Да
    Forced : Нет
    Аудио #2
    Идентификатор : 3
    Формат : DTS
    Формат/Информация : Digital Theater Systems
    Режим : 16
    Параметр Endianness формата : Big
    Идентификатор кодека : A_DTS
    Продолжительность : 1 ч. 32 м.
    Вид битрейта : Постоянный
    Битрейт : 1509 Кбит/сек
    Каналы : 6 каналов
    Расположение каналов : Front: L C R, Side: L R, LFE
    Частота : 48, 0 КГц
    Битовая глубина : 24 бит
    Метод сжатия : С потерями
    Размер потока : 998 Мбайт (8%)
    Заголовок : MVO-DTS [Paradox Omskbird records]
    Язык : Russian
    Default : Нет
    Forced : Да
    Аудио #3
    Идентификатор : 4
    Формат : AC-3
    Формат/Информация : Audio Coding 3
    Расширение режима : CM (complete main)
    Параметр Endianness формата : Big
    Идентификатор кодека : A_AC3
    Продолжительность : 1 ч. 32 м.
    Вид битрейта : Постоянный
    Битрейт : 448 Кбит/сек
    Каналы : 6 каналов
    Расположение каналов : Front: L C R, Side: L R, LFE
    Частота : 48, 0 КГц
    Битовая глубина : 16 бит
    Метод сжатия : С потерями
    Размер потока : 296 Мбайт (2%)
    Заголовок : MVO [Paradox Omskbird records]
    Язык : Russian
    Default : Нет
    Forced : Нет
    Аудио #4
    Идентификатор : 5
    Формат : DTS
    Формат/Информация : Digital Theater Systems
    Режим : 16
    Параметр Endianness формата : Big
    Идентификатор кодека : A_DTS
    Продолжительность : 1 ч. 32 м.
    Вид битрейта : Постоянный
    Битрейт : 1509 Кбит/сек
    Каналы : 6 каналов
    Расположение каналов : Front: L C R, Side: L R, LFE
    Частота : 48, 0 КГц
    Битовая глубина : 24 бит
    Метод сжатия : С потерями
    Размер потока : 998 Мбайт (8%)
    Заголовок : Original
    Язык : English
    Default : Нет
    Forced : Нет
    Текст #1
    Идентификатор : 6
    Формат : UTF-8
    Идентификатор кодека : S_TEXT/UTF8
    Идентификатор кодека/Информация : UTF-8 Plain Text
    Язык : Russian
    Default : Нет
    Forced : Нет
    Текст #2
    Идентификатор : 7
    Формат : UTF-8
    Идентификатор кодека : S_TEXT/UTF8
    Идентификатор кодека/Информация : UTF-8 Plain Text
    Язык : English
    Default : Нет
    Forced : Нет
    Текст #3
    Идентификатор : 8
    Формат : UTF-8
    Идентификатор кодека : S_TEXT/UTF8
    Идентификатор кодека/Информация : UTF-8 Plain Text
    Заголовок : SDH
    Язык : English
    Default : Нет
    Forced : Нет
    Меню
    00:00:00.000 : en:Chapter 01
    00:04:44.159 : en:Chapter 02
    00:13:12.333 : en:Chapter 03
    00:18:51.672 : en:Chapter 04
    00:26:40.432 : en:Chapter 05
    00:29:47.869 : en:Chapter 06
    00:37:11.145 : en:Chapter 07
    00:42:09.068 : en:Chapter 08
    00:48:23.817 : en:Chapter 09
    00:53:23.867 : en:Chapter 10
    01:00:36.049 : en:Chapter 11
    01:04:13.558 : en:Chapter 12
    01:10:27.431 : en:Chapter 13
    01:13:55.431 : en:Chapter 14
    01:20:42.045 : en:Chapter 15
    01:25:14.901 : en:Chapter 16

    Скриншоты для ознакомления



    Все одноименные релизы в Клубе
    Время раздачи: 24/7. До первых 5 скачавших.

    Ведьма/The VVitch: A New-England Folktale (2015) BDRip [H.264/1080p]
    загрузка...
    Рейтинг →
     (голосов: 1, оценка 4/5, голосовать можно 1 раз )

    Другие торренты по теме:

  • Ведьма / The VVitch: A New-England Folktale (2015) WEBRip [H.264 / 720p-LQ]
  • Ведьма / The VVitch: A New-England Folktale (2015) WEBRip [H.264 / 720p-LQ]
  • Ведьма / The VVitch: A New-England Folktale (2015) WEBRip
  • Ведьма / The Witch / The VVitch: A New-England Folktale (2015) BDRip [H.264 / 1080p] [EN]
  • Ведьма / The Witch / The VVitch: A New-England Folktale (2015) BDRip [H.264 / 720p] [EN]
  • Ведьма / The VVitch: A New-England Folktale (2015) HDRip
  • Ведьма / The VVitch: A New-England Folktale (2015) BDRip [H.264 / 720p]
  • Ведьма / The VVitch: A New-England Folktale (2015) BDRip [H.264 / 1080p]


    • Комментарии (0):

      Информация

      Информация

        Посетители, находящиеся в группе Гости, не могут оставлять комментарии в данной новости.

        ↓ Меню




        ↓ Опрос

        Вы добавили сайт в закладки?
        Да
        Нет


        Top 10 за месяц (Фильмы)