.
Авторизация | Регистрация
Хочешь лучшие торренты? Добавь свой email!
Добавить

Торрент скачать бесплатно

» » В былые времена / Back in the Day (2016) WEB-DLRip торрент скачать бесплатно




    В былые времена / Back in the Day (2016) WEB-DLRip торрент скачать бесплатно

    Опубликовал: Админ | Дата: 18-06-2016, 04:00 | Просмотров: 34

    Производство: США/Movie Group, The, Tappan Films
    Жанр: Драма
    Режиссер: Пол Боргезе

    Актеры
    Алек Болдуин, Шеннен Доэрти, Дэнни Гловер, Аннабелла Шиорра, Джо Д`Онофрио, Луис Ломбарди, Мэнни Перез, Марго Казарян, Уильям ДеМео, Джимми Палумбо, Пол Боргезе, Мэнни Айала, Ронни Мармо, Рокко Паренте ...

    Описание

    Детство у главного персонажа было не такое счастливое, как хотелось бы. Вспоминая о прошлом, он раз за разом мысленно переноситься в Бруклин, где проходили детские годы, на улицах города процветала преступность, часто были слышны выстрелы и крики. Главный персонаж рос в жесточайшем мире, в котором его унижали, оскорбляли. Отец, который страдал от алкогольной зависимости практически не обращал внимание на растущего сына, а любимая мама, которая заботилась о сыне как могла, покинула этот мир слишком рано. Парень очень тяжело переживал смерть матери, но, не смотря на это, он старался оставаться хорошим человекам с моральными устоями. Спустя какое-то время на парня обратил внимание человек из преступного мира, он забрал его к себе в тот момент, когда парень решил связать свою жизнь с боксом. С каждым днем герой становился все сильнее и успешнее, хотя для мальчика который вырос в таких условиях это практически невозможно.

    Премьера(мир): 20 мая 2016
    Продолжительность: 02: 00: 22
    Качество видео: WEB-DLRip
    Перевод: Профессиональный многоголосый (Paradox Omskbird records)
    Субтитры: Отсутствуют
    Реклама: Присутствуют вставки голосовой и текстовой рекламы.
    Видео: MPEG4, XviD, 720x304 (2.35: 1), 23.976 fps, 2 036 Kbps (0.388 bit/pixel)
    Аудио: AC-3, 48.0 KHz, 2 ch, 384 Kbps, CBR
    Код:

    Формат : AVI
    Формат/Информация : Audio Video Interleave
    Профиль формата : OpenDML
    Размер файла : 2, 04 Гбайт
    Продолжительность : 2 ч. 0 м.
    Общий поток : 2432 Кбит/сек
    Программа кодирования : VirtualDubMod 1.5.10.2 (build 2542/release)
    Библиотека кодирования : VirtualDubMod build 2542/release
    Видео
    Идентификатор : 0
    Формат : MPEG-4 Visual
    Профиль формата : Advanced Simple@L5
    Параметр BVOP формата : 2
    Параметр QPel формата : Нет
    Параметр GMC формата : Без точки перехода
    Параметр матрицы формата : Выборочная
    Идентификатор кодека : XVID
    Идентификатор кодека/Подсказка : XviD
    Продолжительность : 2 ч. 0 м.
    Битрейт : 2036 Кбит/сек
    Ширина : 720 пикселей
    Высота : 304 пикселя
    Соотношение сторон : 2, 35:1
    Частота кадров : 23, 976 кадра/сек
    Цветовое пространство : YUV
    Субдискретизация насыщенности : 4:2:0
    Битовая глубина : 8 бит
    Тип развёртки : Прогрессивная
    Метод сжатия : С потерями
    Бит/(Пиксели*Кадры) : 0.388
    Размер потока : 1, 71 Гбайт (84%)
    Библиотека кодирования : XviD 1.2.1 (UTC 2008-12-04)
    Аудио
    Идентификатор : 1
    Формат : AC-3
    Формат/Информация : Audio Coding 3
    Расширение режима : CM (complete main)
    Параметр Endianness формата : Big
    Идентификатор кодека : 2000
    Продолжительность : 2 ч. 0 м.
    Вид битрейта : Постоянный
    Битрейт : 384 Кбит/сек
    Каналы : 2 канала
    Расположение каналов : Front: L R
    Частота : 48, 0 КГц
    Битовая глубина : 16 бит
    Метод сжатия : С потерями
    Задержка видео : 4 мс.
    Размер потока : 331 Мбайт (16%)
    Выравнивание : Разделение по промежуткам
    Продолжительность промежутка : 42 мс. (1, 00 видеокадр)
    Время предзагрузки промежутка : 500 мс.


    Скриншоты для ознакомления




    Онлайн видео В былые времена



    В былые времена/Back in the Day (2016) WEB-DLRip
    загрузка...
    Рейтинг →
     (голосов: 1, оценка 5/5, голосовать можно 1 раз )

    Другие торренты по теме:

  • В былые времена / Back in the Day (2016) WEB-DL [H.264 / 720p-LQ] [EN / EN Sub]
  • В былые времена / Back in the Day (2016) WEB-DL [H.264 / 720p-LQ]
  • В былые времена / Back in the Day (2016) WEB-DL [H.264 / 720p-LQ]
  • В былые времена / Back in the Day (2016) WEB-DLRip
  • В былые времена / Back in the Day (2016)


    • Комментарии (0):

      Информация

      Информация

        Посетители, находящиеся в группе Гости, не могут оставлять комментарии в данной новости.

        ↓ Меню




        ↓ Опрос

        Вы добавили сайт в закладки?
        Да
        Нет


        Top 10 за месяц (Фильмы)