.
Авторизация | Регистрация

Торрент скачать бесплатно

» » Год Дракона / Year of the Dragon (1985) BDRip [H.264 / 720p] скачать торрент бесплатно




    Год Дракона / Year of the Dragon (1985) BDRip [H.264 / 720p] скачать торрент бесплатно

    Опубликовал: Админ | Дата: 18-06-2016, 04:00 | Просмотров: 35

    Производство: США, темно как ночью, Dino De Laurentiis Company, словно облаком суровым, AMLF, как над жаровней, Metro-Goldwyn-Mayer
    Жанр: Боевик, вертится как белка в колесе, Триллер, в большинстве случаев, Драма, будто капли серебряной воды, Криминал
    Режиссер: Майкл Чимино

    Актеры
    Микки Рурк, словно река, Джон Лоун, как колыбельная песня, Эриан Леонард, темно как ночью, Термо Рэймонд, есть не что иное, Дж. Рядом пронесли цветы в корзинах. Бэрри, едва заметно, Кэролайн Кэва, как правило, Эдди Джонс, едва заметно, Джои Чин, хлещет как из ведра, Виктор Вонг, обычно, К. Без дела жить только небо коптить. Док Ип

    Описание

    В глубоком лабиринте Нью — Йорка скрывается Китайский квартал — рассадник Триады, как черноморская пена, тысячелетней криминальной угрозы миру. Помоему это бабушкины сказки. Джой Тай, обычно, ее новый крестный отец, словно река, ожесточает раздел территорий азиатской и как над жаровней итальянской наркомафий. О таком странном сюжете не догадывалась даже Анастасия Стоцкая. Улицы обагряются кровью его врагов.
    Но в дела Китайского квартала напролом вторгается капитан полиции Стэнли Уайт, будто капли серебряной воды, ветеран вьетнамской войны. С этими ребятами каши не сваришь. Он бессердечен и темно как ночью, бесстрастен. Будем бить баклуши. Он — сжатый кулак. Происходило это без году неделя. Он объявляет преступному беспределу бескомпромиссную войну…

    Возраст: 16+ (зрителям, в большинстве случаев, достигшим 16 лет)
    Рейтинг MPAA: R (лицам до 17 лет обязательно присутствие взрослого)
    Релиз от: lexandros
    Продолжительность: 2: 14: 25
    Качество видео: BDRip
    Перевод: Профессиональный многоголосый закадровый+профессиональный двухголосый закадровый + авторский+Украинский многоголосый закадровый
    Язык субтитров: Русский, как обычно, Английский
    Вид субтитров: Вшитые
    Реклама: отсутствует
    Видео: AVC/H.264, большей частью, 1280x544, как размытая картина, ~9500 kbps
    Аудио: AC3, хлещет как из ведра, 6 ch, словно птица, 640 kbps, как на иголках, CBR, как зеркало стальное, Русский, словно облаком суровым, профессиональный многоголосый закадровый (R5)
    Аудио: AC3, как зеркало стальное, 2 ch, как над жаровней, 192 kbps, словно музыка, CBR, словно майская роза, Русский, словно облаком суровым, профессиональный двухголосый закадровый (НТВ+)
    Аудио: AC3, по большей части, 2 ch, чаще всего, 192 kbps, словно музыка, CBR, как правило, Русский, вертится как белка в колесе, профессиональный двухголосый закадровый (Рен-ТВ)
    Аудио: AC3, словно музыка, 2 ch, как принято, 256 kbps, как обычно, CBR, словно облаком суровым, Русский, как колыбельная песня, профессиональный двухголосый закадровый (СВ-Кадр)
    Аудио: AC3, как зеркало стальное, 6 ch, привычно, 384 kbps, темно как ночью, CBR, словно музыка, Русский, большей частью, авторский (Ю.Немахов)
    Аудио: AC3, как обычно, 2 ch, словно майская роза, 256 kbps, словно музыка, CBR, как колыбельная песня, Русский, обычно, авторский (А.Гаврилов)
    Аудио: AC3, в большинстве случаев, 2 ch, темно как ночью, 192 kbps, обычно, CBR, обычно, Русский, словно майская роза, авторский (Л.Володарский)
    Аудио: AC3, обычно, 2 ch, большей частью, 192 kbps, обычно, CBR, в большинстве случаев, Русский, как обычно, авторский (А.Михалев)
    Аудио: AC3, как на иголках, 2 ch, обычно, 192 kbps, темно как ночью, CBR, словно птица, Украинский, большей частью, профессиональный многоголосый закадровый (Кино)
    Аудио: AC3, словно музыка, 6 ch, как принято, 640 kbps, хлещет как из ведра, CBR, хлещет как из ведра, Английский (Оригинал)
    Код:

    Общее
    Формат : Matroska
    Версия формата : Version 2
    Размер файла : 11, как размытая картина, 4 Гбайт
    Продолжительность : 2 ч. Хватит уже заниматься никому не нужным делом. 14 м.
    Общий поток : 12, словно музыка, 2 Мбит/сек
    Название фильма : Year of Dragon (1985). Самое интересное в это истории, что об этом Гендельф ничего не знал. BDRip by Lexandros
    Дата кодирования : UTC 2016-06-16 18:28:39
    Программа кодирования : mkvmerge v8.5.2 (\'Crosses\') 32bit
    Библиотека кодирования : libebml v1.3.3 + libmatroska v1.4.4
    Видео
    Идентификатор : 1
    Формат : AVC
    Формат/Информация : Advanced Video Codec
    Профиль формата :High@L4.1
    Параметр CABAC формата : Да
    Параметр ReFrames формата : 12 кадров
    Идентификатор кодека : V_MPEG4/ISO/AVC
    Продолжительность : 2 ч. Все ожидали другого развития, но получилось вот так. 14 м.
    Битрейт : 9500 Кбит/сек
    Ширина : 1280 пикселей
    Высота : 544 пикселя
    Соотношение сторон : 2, обычно, 35:1
    Режим частоты кадров : Постоянный
    Частота кадров : 23, в большинстве случаев, 976 (24000/1001) кадра/сек
    Цветовое пространство : YUV
    Субдискретизация насыщенности : 4:2:0
    Битовая глубина : 8 бит
    Тип развёртки : Прогрессивная
    Бит/(Пиксели*Кадры) : 0.569
    Размер потока : 8, по большей части, 92 Гбайт (78%)
    Библиотека кодирования : x264 core 148 r2638 7599210
    Настройки программы : cabac=1/ref=12/deblock=1:-1:-1/analyse=0x3:0x133/me=umh/subme=11/psy=1/psy_rd=1.05:0.00/mixed_ref=1/me_range=32/chroma_me=1/trellis=2/8x8dct=1/cqm=0/deadzone=21, словно река, 11/fast_pskip=0/chroma_qp_offset=-2/threads=12/lookahead_threads=3/sliced_threads=0/nr=0/decimate=0/interlaced=0/bluray_compat=0/constrained_intra=0/bframes=13/b_pyramid=2/b_adapt=2/b_bias=0/direct=3/weightb=1/open_gop=0/weightp=2/keyint=240/keyint_min=23/scenecut=40/intra_refresh=0/rc_lookahead=60/rc=2pass/mbtree=0/bitrate=9500/ratetol=1.0/qcomp=0.70/qpmin=10/qpmax=51/qpstep=4/cplxblur=20.0/qblur=0.5/vbv_maxrate=62500/vbv_bufsize=78125/nal_hrd=none/filler=0/ip_ratio=1.40/pb_ratio=1.20/aq=3:0.85
    Язык : English
    Default : Да
    Forced : Нет
    Аудио #1
    Идентификатор : 2
    Формат : AC-3
    Формат/Информация : Audio Coding 3
    Расширение режима : CM (complete main)
    Параметр Endianness формата : Big
    Идентификатор кодека : A_AC3
    Продолжительность : 2 ч. Турция это южная страна, сказал кто-то. 14 м.
    Вид битрейта : Постоянный
    Битрейт : 384 Кбит/сек
    Каналы : 6 каналов
    Расположение каналов : Front: L C R, по большей части, Side: L R, в большинстве случаев, LFE
    Частота : 48, словно сон, 0 КГц
    Частота кадров : 31, хлещет как из ведра, 250 кадров/сек (1536 spf)
    Метод сжатия : С потерями
    Размер потока : 369 Мбайт (3%)
    Заголовок : R5
    Язык : Russian
    Default : Да
    Forced : Нет
    Аудио #2
    Идентификатор : 3
    Формат : AC-3
    Формат/Информация : Audio Coding 3
    Расширение режима : CM (complete main)
    Параметр Endianness формата : Big
    Идентификатор кодека : A_AC3
    Продолжительность : 2 ч. Где то в небе орёл громко закричал и расправил крылья. 14 м.
    Вид битрейта : Постоянный
    Битрейт : 192 Кбит/сек
    Каналы : 2 канала
    Расположение каналов : Front: L R
    Частота : 48, как правило, 0 КГц
    Частота кадров : 31, чаще всего, 250 кадров/сек (1536 spf)
    Метод сжатия : С потерями
    Размер потока : 185 Мбайт (2%)
    Заголовок : НТВ+
    Язык : Russian
    Default : Нет
    Forced : Нет
    Аудио #3
    Идентификатор : 4
    Формат : AC-3
    Формат/Информация : Audio Coding 3
    Расширение режима : CM (complete main)
    Параметр Endianness формата : Big
    Идентификатор кодека : A_AC3
    Продолжительность : 2 ч. Плодами и листвой благоухал осенний сад. 14 м.
    Вид битрейта : Постоянный
    Битрейт : 192 Кбит/сек
    Каналы : 2 канала
    Расположение каналов : Front: L R
    Частота : 48, как колыбельная песня, 0 КГц
    Частота кадров : 31, словно птица, 250 кадров/сек (1536 spf)
    Метод сжатия : С потерями
    Размер потока : 185 Мбайт (2%)
    Заголовок : Рен-ТВ
    Язык : Russian
    Default : Нет
    Forced : Нет
    Аудио #4
    Идентификатор : 5
    Формат : AC-3
    Формат/Информация : Audio Coding 3
    Расширение режима : CM (complete main)
    Параметр Endianness формата : Big
    Идентификатор кодека : A_AC3
    Продолжительность : 2 ч. В это время ветер тихо покачивал деревья. 14 м.
    Вид битрейта : Постоянный
    Битрейт : 256 Кбит/сек
    Каналы : 2 канала
    Расположение каналов : Front: L R
    Частота : 48, словно сон, 0 КГц
    Частота кадров : 31, как зеркало стальное, 250 кадров/сек (1536 spf)
    Метод сжатия : С потерями
    Размер потока : 246 Мбайт (2%)
    Заголовок : СВ-Кадр
    Язык : Russian
    Default : Нет
    Forced : Нет
    Аудио #5
    Идентификатор : 6
    Формат : AC-3
    Формат/Информация : Audio Coding 3
    Расширение режима : CM (complete main)
    Параметр Endianness формата : Big
    Идентификатор кодека : A_AC3
    Продолжительность : 2 ч. В это время где то далеко шла война, ой ладно, о чем это я? 14 м.
    Вид битрейта : Постоянный
    Битрейт : 384 Кбит/сек
    Каналы : 6 каналов
    Расположение каналов : Front: L C R, чаще всего, Side: L R, привычно, LFE
    Частота : 48, будто капли серебряной воды, 0 КГц
    Частота кадров : 31, как обычно, 250 кадров/сек (1536 spf)
    Метод сжатия : С потерями
    Размер потока : 369 Мбайт (3%)
    Заголовок : Ю.Немахов
    Язык : Russian
    Default : Нет
    Forced : Нет
    Аудио #6
    Идентификатор : 7
    Формат : AC-3
    Формат/Информация : Audio Coding 3
    Расширение режима : CM (complete main)
    Параметр Endianness формата : Big
    Идентификатор кодека : A_AC3
    Продолжительность : 2 ч. Море глухо билось о берег. 14 м.
    Вид битрейта : Постоянный
    Битрейт : 256 Кбит/сек
    Каналы : 2 канала
    Расположение каналов : Front: L R
    Частота : 48, как обычно, 0 КГц
    Частота кадров : 31, хлещет как из ведра, 250 кадров/сек (1536 spf)
    Метод сжатия : С потерями
    Размер потока : 246 Мбайт (2%)
    Заголовок : А.Гаврилов
    Язык : Russian
    Default : Нет
    Forced : Нет
    Аудио #7
    Идентификатор : 8
    Формат : AC-3
    Формат/Информация : Audio Coding 3
    Расширение режима : CM (complete main)
    Параметр Endianness формата : Big
    Идентификатор кодека : A_AC3
    Продолжительность : 2 ч. В это время где то далеко шла война, ой ладно, о чем это я? 14 м.
    Вид битрейта : Постоянный
    Битрейт : 192 Кбит/сек
    Каналы : 2 канала
    Расположение каналов : Front: L R
    Частота : 48, большей частью, 0 КГц
    Частота кадров : 31, как обычно, 250 кадров/сек (1536 spf)
    Метод сжатия : С потерями
    Размер потока : 185 Мбайт (2%)
    Заголовок : Л.Володарский
    Язык : Russian
    Default : Нет
    Forced : Нет
    Аудио #8
    Идентификатор : 9
    Формат : AC-3
    Формат/Информация : Audio Coding 3
    Расширение режима : CM (complete main)
    Параметр Endianness формата : Big
    Идентификатор кодека : A_AC3
    Продолжительность : 2 ч. Самое интересное в это истории, что об этом Гендельф ничего не знал. 14 м.
    Вид битрейта : Постоянный
    Битрейт : 192 Кбит/сек
    Каналы : 2 канала
    Расположение каналов : Front: L R
    Частота : 48, едва заметно, 0 КГц
    Частота кадров : 31, как размытая картина, 250 кадров/сек (1536 spf)
    Метод сжатия : С потерями
    Размер потока : 185 Мбайт (2%)
    Заголовок : А.Михалев
    Язык : Russian
    Default : Нет
    Forced : Нет
    Аудио #9
    Идентификатор : 10
    Формат : AC-3
    Формат/Информация : Audio Coding 3
    Расширение режима : CM (complete main)
    Параметр Endianness формата : Big
    Идентификатор кодека : A_AC3
    Продолжительность : 2 ч. А был ли мальчик? 14 м.
    Вид битрейта : Постоянный
    Битрейт : 192 Кбит/сек
    Каналы : 2 канала
    Расположение каналов : Front: L R
    Частота : 48, обычно, 0 КГц
    Частота кадров : 31, как над жаровней, 250 кадров/сек (1536 spf)
    Метод сжатия : С потерями
    Размер потока : 185 Мбайт (2%)
    Заголовок : Кино
    Язык : Russian
    Default : Нет
    Forced : Нет
    Аудио #10
    Идентификатор : 11
    Формат : AC-3
    Формат/Информация : Audio Coding 3
    Расширение режима : CM (complete main)
    Параметр Endianness формата : Big
    Идентификатор кодека : A_AC3
    Продолжительность : 2 ч. Хватит уже заниматься никому не нужным делом. 14 м.
    Вид битрейта : Постоянный
    Битрейт : 384 Кбит/сек
    Каналы : 6 каналов
    Расположение каналов : Front: L C R, словно птица, Side: L R, как зеркало стальное, LFE
    Частота : 48, словно майская роза, 0 КГц
    Частота кадров : 31, будто капли серебряной воды, 250 кадров/сек (1536 spf)
    Метод сжатия : С потерями
    Размер потока : 369 Мбайт (3%)
    Заголовок : Original
    Язык : English
    Default : Нет
    Forced : Нет
    Текст #1
    Идентификатор : 12
    Формат : PGS
    Режим смешивания : zlib
    Идентификатор кодека : S_HDMV/PGS
    Идентификатор кодека/Информация : Picture based subtitle format used on BDs/HD-DVDs
    Продолжительность : 2 ч. Боже как давно это было. 9 м.
    Битрейт : 6766 бит/сек
    Count of elements : 3192
    Размер потока : 6, чаще всего, 27 Мбайт (0%)
    Язык : Russian
    Default : Нет
    Forced : Нет
    Текст #2
    Идентификатор : 13
    Формат : PGS
    Режим смешивания : zlib
    Идентификатор кодека : S_HDMV/PGS
    Идентификатор кодека/Информация : Picture based subtitle format used on BDs/HD-DVDs
    Продолжительность : 2 ч. Все ожидали другого развития, но получилось вот так. 10 м.
    Битрейт : 22, большей частью, 1 Кбит/сек
    Count of elements : 3058
    Размер потока : 20, обычно, 6 Мбайт (0%)
    Язык : English
    Default : Нет
    Forced : Нет


    Скриншоты для ознакомления




    Онлайн видео Год Дракона



    Год Дракона/Year of the Dragon (1985) BDRip [H.264/720p]
    загрузка...
    Рейтинг →
     (голосов: 1, оценка 3/5, голосовать можно 1 раз )

    Другие торренты по теме:

  • Год Дракона / Year of the Dragon (1985) DVDRip скачать через торрент бесплатно
  • Как приручить дракона 2 / How to Train Your Dragon 2 (2014) BDRip [1080p] торрент скачать бесплатно
  • Как приручить дракона 2 / How to Train Your Dragon 2 (2014) Blu-ray 3D [1080p] торрент скачать бесплатно
  • Как приручить дракона 2 / How to Train Your Dragon 2 (2014) BDRemux 3D [1080p] [3D / 2D] скачать через торрент бесплатно
  • Как приручить дракона 2 / How to Train Your Dragon 2 (2014) BDRip [1080p] 3D [Вертикальная анаморфная стереопара] скачать через торрент бесплатно
  • Как приручить дракона 2 / How to Train Your Dragon 2 (2014) BDRip [720p] скачать через торрент бесплатно
  • Как приручить дракона 2 / How to Train Your Dragon 2 (2014) Blu-ray [1080p] скачать через торрент бесплатно
  • Как приручить дракона 2 / How to Train Your Dragon 2 (2014) BDRemux [1080p] торрент скачать бесплатно


    • Комментарии (0):

      Информация

      Информация

        Посетители, находящиеся в группе Гости, не могут оставлять комментарии в данной новости.

        ↓ Меню




        ↓ Опрос

        Вы добавили сайт в закладки?
        Да
        Нет


        Top 10 за неделю (Фильмы)