.
Авторизация | Регистрация
Хочешь лучшие торренты? Добавь свой email!
Добавить

Торрент скачать бесплатно

» » Безмозглые / BrainDead (2016) WEB-DLRip [H.264 / 720p-LQ] (сезон 1, серии 1 из 13) LostFilm (обновляемая) торрент скачать бесплатно




    Безмозглые / BrainDead (2016) WEB-DLRip [H.264 / 720p-LQ] (сезон 1, серии 1 из 13) LostFilm (обновляемая) торрент скачать бесплатно

    Опубликовал: Админ | Дата: 18-06-2016, 04:00 | Просмотров: 160

    Производство: США
    Жанр: ужасы, фантастика, драма, комедия
    Режиссер: Джим МакКэй, Роберт Кинг

    Актеры
    Мэри Элизабет Уинстэд, Бет Мэлоун, Жан Максвелл, Дэниэл Пино, Аарон Твейт, Тони Шэлуб, Меган Хилти, Пейдж Паттерсон, Чарльз Семине, Зэк Гренье и др.

    Описание

    План Лорел Хили сделать карьеру в документальном кино складывается далеко не так удачно, как ей хотелось бы, из-за чего она вынуждена согласиться поработать в Конгрессе в команде ее брата — сенатора от штата Мэриленд, занимающего пост парламентского организатора фракции демократов. На новом месте девушка сталкивается сразу с двумя серьезными проблемами. Первая касается непреодолимых разногласий между демократами и республиканцами, грозящих привести к прекращению работы правительства. Вторая заключается в том, что ведущие американские политики подверглись нападению мелких инопланетных существ, питающихся мозгами людей. Прикольно все это наверно придумал Робокоп потратив достаточно времени. Чтобы узнать истинные цели этих загадочных жучков, Лорел предстоит объединить усилия с эксцентричным конспирологом Густавом Триплеттом и ординатором Рошель Додье. Число подвергшихся заражению конгрессменов и сенаторов продолжает увеличиваться, что вынуждает главную героиню принять экстренные меры по спасению американцев от полоумных политиков...

    Дата мировой премьеры: 13 июня 2016
    Продолжительность: ~ 00: 45: 00 серия
    Качество видео: WEB-DLRip
    Перевод: Многоголосый закадровый, профессиональный -LostFilm
    Реклама: присутствуют заставка и логотип LostFilm
    Видео: AVC/H.264, 1280x720 (16: 9), ~4000 Kbps
    Аудио Rus: AC3, 48, 0 kHz, 2 ch, 384 Kbps - многоголосый закадровый
    Аудио Eng: AC3, 48, 0 kHz, 2 ch, 384 Kbps - оригинал
    Код:
    General
    Unique ID : 170870833810984955926197878185673900306 (0x808C868A2D1120CA9D55BE15787C4112)
    Complete name : Braindead [S01] [LostFilm]Braindead.S01E01.720p.WEB.rus.LostFilm.TV.mkv
    Format : Matroska
    Format version : Version 4/Version 2
    File size : 1.46 GiB
    Duration : 43mn 48s
    Overall bit rate : 4 763 Kbps
    Encoded date : UTC 2016-06-17 20:43:18
    Writing application : mkvmerge v9.2.0 (\'Photograph\') 64bit
    Writing library : libebml v1.3.3 + libmatroska v1.4.4
    Video
    ID : 1
    Format : AVC
    Format/Info : Advanced Video Codec
    Format profile :High@L4.1
    Format settings, CABAC : No
    Format settings, ReFrames : 4 frames
    Codec ID : V_MPEG4/ISO/AVC
    Duration : 43mn 48s
    Bit rate : 4 000 Kbps
    Width : 1 280 pixels
    Height : 720 pixels
    Display aspect ratio : 16:9
    Frame rate mode : Constant
    Frame rate : 23.976 (24000/1001) fps
    Original frame rate : 23.976 (23976/1000) fps
    Color space : YUV
    Chroma subsampling : 4:2:0
    Bit depth : 8 bits
    Scan type : Progressive
    Bits/(Pixel*Frame) : 0.181
    Stream size : 1.22 GiB (84%)
    Writing library : x264 core 112 r1834 a51816a
    Encoding settings : cabac=0/ref=3/deblock=1:0:0/analyse=0x3:0x113/me=hex/subme=7/psy=1/psy_rd=1.00:0.00/mixed_ref=1/me_range=16/chroma_me=1/trellis=1/8x8dct=1/cqm=0/deadzone=21, 11/fast_pskip=1/chroma_qp_offset=-2/threads=12/sliced_threads=0/nr=0/decimate=1/interlaced=0/constrained_intra=0/bframes=4/b_pyramid=2/b_adapt=1/b_bias=0/direct=1/weightb=1/open_gop=0/weightp=2/keyint=250/keyint_min=25/scenecut=40/intra_refresh=0/rc_lookahead=40/rc=2pass/mbtree=1/bitrate=4000/ratetol=1.0/qcomp=0.60/qpmin=0/qpmax=51/qpstep=4/cplxblur=20.0/qblur=0.5/vbv_maxrate=5000/vbv_bufsize=2000/ip_ratio=1.40/aq=1:1.00/nal_hrd=none
    Language : English
    Default : Yes
    Forced : No
    Audio #1
    ID : 2
    Format : AC-3
    Format/Info : Audio Coding 3
    Mode extension : CM (complete main)
    Format settings, Endianness : Big
    Codec ID : A_AC3
    Duration : 43mn 48s
    Bit rate mode : Constant
    Bit rate : 384 Kbps
    Channel(s) : 2 channels
    Channel positions : Front: L R
    Sampling rate : 48.0 KHz
    Frame rate : 31.250 fps (1536 spf)
    Compression mode : Lossy
    Stream size : 120 MiB (8%)
    Language : Russian
    Default : Yes
    Forced : No
    Audio #2
    ID : 3
    Format : AC-3
    Format/Info : Audio Coding 3
    Mode extension : CM (complete main)
    Format settings, Endianness : Big
    Codec ID : A_AC3
    Duration : 43mn 48s
    Bit rate mode : Constant
    Bit rate : 384 Kbps
    Channel(s) : 2 channels
    Channel positions : Front: L R
    Sampling rate : 48.0 KHz
    Frame rate : 31.250 fps (1536 spf)
    Compression mode : Lossy
    Stream size : 120 MiB (8%)
    Language : English
    Default : No
    Forced : No


    Скриншоты для ознакомления




    Онлайн видео Безмозглые



    Безмозглые/BrainDead (2016) WEB-DLRip [H.264/720p-LQ] (сезон 1, серии 1 из 13) LostFilm (обновляемая)
    загрузка...
    Рейтинг →
     (голосов: 1, оценка 5/5, голосовать можно 1 раз )

    Другие торренты по теме:

  • Безмозглые / BrainDead (2016) HDTV [H.264 / 720p-LQ] (сезон 1, серии 1-1 из 13) HamsterStudio (обновляемая)
  • Смерть мозга / Безмозглые / BrainDead (2016) HDTVRip [H.264 / 720p-LQ] (сезон 1, серии 1 из 13) OMSKBIRD (обновляемая)
  • Смерть мозга / Безмозглые / BrainDead (2016) HDTVRip (сезон 1, серии 1 из 13) OMSKBIRD (обновляемая)
  • Безмозглые / BrainDead (2016) WEB-DLRip [H.264 / 1080p-LQ] (сезон 1, серии 1-5 из 13) BaibaKo (обновляемая)
  • Безмозглые / Смерть мозга / BrainDead (2016) WEBRip (сезон 1, серии 1 из 13) LostFilm (обновляемая)
  • Безмозглые / Смерть мозга / BrainDead (2016) HDTVRip [H.264] (сезон 1, серии 1 из 13) RATTLEBOX [MP4|1920х1080] (обновляемая)


    • Комментарии (0):

      Информация

      Информация

        Посетители, находящиеся в группе Гости, не могут оставлять комментарии в данной новости.

        ↓ Меню




        ↓ Опрос

        Вы добавили сайт в закладки?
        Да
        Нет


        Top 10 за месяц (Фильмы)