.
Авторизация | Регистрация
Хочешь лучшие торренты? Добавь свой email!
Добавить

Торрент скачать бесплатно

» » Крушение / Wrecked (2016) HDTVRip [H.264 / 720p-LQ] (сезон 1, серии 1 из 6) BaibaKo (обновляемая) торрент скачать бесплатно




    Крушение / Wrecked (2016) HDTVRip [H.264 / 720p-LQ] (сезон 1, серии 1 из 6) BaibaKo (обновляемая) торрент скачать бесплатно

    Опубликовал: Админ | Дата: 18-06-2016, 04:00 | Просмотров: 43

    Производство: США
    Жанр: комедия
    Режиссер: Джеймс Гриффитс

    Актеры
    Джинджер Гонзага, Элли Матсумура, Николас Александр, Азиф Али, Пабло Асар, Джордж Бейзил, Джеймс О. Битти и др.

    Описание

    Когда происходит непредвиденное, заранее не записанное нами в ежедневник, проявляется наша сущность. То, как мы ведём себя, показывает, какие мы есть на самом деле, ведь наносная шелуха в виде хорошего воспитания и светских манер слетает вмиг. Волк в овечьей шкуре, сказал кто то из толпы, к чему не понятно. Герои сериала Wrecked - выжившие пассажиры самолёта, потерпевшего катастрофу над затерянным в океане островом.
    Каждый день эта группа счастливчиков подвергается разнообразным опасностям (и причиной большинства из них они являются сами). Среди выживших – два лучших друга: Дэнни и Оуэн. Кажется, эти парни будут разумнее всех остальных. Друзья понимают: чтобы выжить самим и не дать погибнуть другим, они должны стать лидерами нового сообщества и установить собственную власть.

    Дата мировой премьеры: 21 июня 2016
    Продолжительность: ~ 00: 21: 00 серия
    Качество видео: HDTVRip
    Перевод: Многоголосый закадровый, профессиональный -BaibaKo
    Автор перевода: Александра Зубко
    Озвучка: Светлана Доманова, Юлия Котурбаш, Артемий Мирон и Сергей Корчак
    Монтаж: Игорь Лихо
    Видео: AVC/H.264, 1280x720 (16: 9), ~3417 Kbps
    Аудио Rus: AC3, 2 ch, 384 Kbps - многоголосый закадровый
    Аудио Eng: AC3, 2 ch, 448 Kbps - оригинал
    Код:
    General
    Unique ID : 205436559094888659607498390156496855391 (0x9A8DA45F91C045279EFD09885187E15F)
    Complete name : Wrecked [S01] [BaibaKo]Wrecked.s01e01.HDTV.720p.Rus.Eng.BaibaKo.tv.mkv
    Format : Matroska
    Format version : Version 4/Version 2
    File size : 645 MiB
    Duration : 21mn 12s
    Overall bit rate : 4 251 Kbps
    Encoded date : UTC 2016-06-17 12:47:23
    Writing application : mkvmerge v9.2.0 (\'Photograph\') 64bit
    Writing library : libebml v1.3.3 + libmatroska v1.4.4
    Video
    ID : 1
    Format : AVC
    Format/Info : Advanced Video Codec
    Format profile :High@L4.1
    Format settings, CABAC : Yes
    Format settings, ReFrames : 9 frames
    Codec ID : V_MPEG4/ISO/AVC
    Duration : 21mn 12s
    Bit rate : 3 417 Kbps
    Width : 1 280 pixels
    Height : 720 pixels
    Display aspect ratio : 16:9
    Frame rate mode : Constant
    Frame rate : 23.976 (24000/1001) fps
    Color space : YUV
    Chroma subsampling : 4:2:0
    Bit depth : 8 bits
    Scan type : Progressive
    Bits/(Pixel*Frame) : 0.155
    Stream size : 518 MiB (80%)
    Writing library : x264 core 148 r2665 a01e339
    Encoding settings : cabac=1/ref=9/deblock=1:-2:-2/analyse=0x3:0x133/me=umh/subme=10/psy=1/psy_rd=1.00:0.00/mixed_ref=1/me_range=32/chroma_me=1/trellis=2/8x8dct=1/cqm=0/deadzone=21, 11/fast_pskip=0/chroma_qp_offset=-2/threads=20/lookahead_threads=2/sliced_threads=0/nr=0/decimate=1/interlaced=0/bluray_compat=0/constrained_intra=0/bframes=5/b_pyramid=2/b_adapt=2/b_bias=0/direct=3/weightb=1/open_gop=0/weightp=2/keyint=250/keyint_min=23/scenecut=40/intra_refresh=0/rc_lookahead=60/rc=crf/mbtree=1/crf=18.0/qcomp=0.60/qpmin=0/qpmax=69/qpstep=4/ip_ratio=1.40/aq=1:1.00
    Language : English
    Default : Yes
    Forced : No
    Color range : Limited
    Matrix coefficients : BT.709
    Audio #1
    ID : 2
    Format : AC-3
    Format/Info : Audio Coding 3
    Mode extension : CM (complete main)
    Format settings, Endianness : Big
    Codec ID : A_AC3
    Duration : 21mn 12s
    Bit rate mode : Constant
    Bit rate : 384 Kbps
    Channel(s) : 6 channels
    Channel positions : Front: L C R, Side: L R, LFE
    Sampling rate : 48.0 KHz
    Frame rate : 31.250 fps (1536 spf)
    Compression mode : Lossy
    Stream size : 58.3 MiB (9%)
    Language : Russian
    Default : Yes
    Forced : No
    Audio #2
    ID : 3
    Format : AC-3
    Format/Info : Audio Coding 3
    Mode extension : CM (complete main)
    Format settings, Endianness : Big
    Codec ID : A_AC3
    Duration : 21mn 12s
    Bit rate mode : Constant
    Bit rate : 448 Kbps
    Channel(s) : 6 channels
    Channel positions : Front: L C R, Side: L R, LFE
    Sampling rate : 48.0 KHz
    Frame rate : 31.250 fps (1536 spf)
    Compression mode : Lossy
    Stream size : 68.0 MiB (11%)
    Language : English
    Default : No
    Forced : No


    Скриншоты для ознакомления




    Онлайн видео Крушение



    Крушение/Wrecked (2016) HDTVRip [H.264/720p-LQ] (сезон 1, серии 1 из 6) BaibaKo (обновляемая)
    загрузка...
    Рейтинг →
     (голосов: 1, оценка 4/5, голосовать можно 1 раз )

    Другие торренты по теме:

  • Крушение / Wrecked (2016) HDTV [H.264 / 1080p -LQ] (сезон 1, серии 1-2 из 6) ColdFilm (обновляемая)
  • Крушение / Wrecked (2016) WEB-DLRip [H.264 / 1080p-LQ] (сезон 1, серии 1-5 из 8) BaibaKo (обновляемая)
  • Крушение / Wrecked (2017) HDTVRip [H.264 / 1080p] (сезон 2, серии 1-2 из 10) OMSKBIRD (обновляемая) [AD]


    • Комментарии (0):

      Информация

      Информация

        Посетители, находящиеся в группе Гости, не могут оставлять комментарии в данной новости.

        ↓ Меню




        ↓ Опрос

        Вы добавили сайт в закладки?
        Да
        Нет


        Top 10 за месяц (Фильмы)